Ссылка на приватное зеркало всего за 1$. Внимание количество ограничено!!!

iTunes

1+1

iTunes

мы

MV0

1

WEB-DLRip

Джокер

Пифагор

Ведьмак / The Witcher сериал

iTunes

ПШазам

iTunes

Оно 2

iTunes

30
pack

Вам бонус

ВАЖНО

!!Акция!!

Alien_RageХит недели

RePack

Resident Evil 21

ИГРА 18+

pack

RePack

jed

!!Акция!!

Alien_Rage

RePack

fifa19

RePack

Assassins Creed: Odyssey

RePack

NEED FOR SPEED™ PAYBACK

4 сезон

9 сезон

Бесстыжие 9 сезон

Все сериалы

все сериалы на PB.wtf

RePack

FAR CRY 5
  

Петрович / Сезоны: 1 / Серии: 1-24 из 24 (Геннадий Байсак, Георгий Гаврилов) [2013, Детектив, криминал, HDTVRip] piratbit.xyz

Петрович через торрент piratbit.xyz

Раздают: 4 [ 702 KB/s ]
Размер: 14.07 GB | Добавлен: 9 д. назад | Торрент скачан:24 раза
Скачать  

14-02-2020 08:32 Петрович Скачать торрент  

Петрович
Год выпуска: 2013
Страна: Россия
Жанр: Детектив, криминал
Продолжительность: ~ 00:48:00 серия
Перевод: не требуется
Субтитры: отсутствуют

Режиссер: Геннадий Байсак, Георгий Гаврилов



В ролях: Алексей Петренко, Илья Шакунов, Андрей Барило, Анастасия Панина, Марина Голуб, Сергей Цепов, Евдокия Германова, Иван Николаев, Лолита Милявская, Влад Топалов, Анатолий Котенёв, Борис Каморзин, Екатерина Семёнова, Сергей Мурзин, Сергей Степанченко, Виктория Тарасова, Вячеслав Титов

Описание: Новый детективный сериал НТВ — о работе необычной адвокатской конторы «Петрович». Руководитель – Трофим Петрович Стрельцов — и его помощник Егор не только защищают людей, но и проводят собственные расследования самых запутанных дел. В этом уникальность их работы, но в этом и ее главный подвох: если юристы найдут доказательства виновности клиента, то на защиту конторы он рассчитывать не сможет. Жестко, но честно! Петрович сознательно идет на риск: пусть он потеряет адвокатскую лицензию, но останется верен себе и своим принципам. В каждой истории Петровича и Егора ждут человеческие драмы, подлость и лицемерие. Однако сбить Петровича с толку не способны даже самые коварные преступники! Опыт и профессиональное чутье помогают ему найти выход из, казалось бы, тупиковых ситуаций. Расследование убийства собственного сына, ложное обвинение бизнесмена в коррупции, нападение на учителя или на инкассаторов – для Петровича нет дела важнее, чем то, которым он занят в данный момент. Можно не сомневаться: он доведет дело до конца и правосудие восторжествует!

Качество: HDTVRip
Формат: AVI

Видео: XviD, ~ 1600 Кбит/с, 720x400
Аудио: 48 kHz, АС3, 2 ch, ~ 192 kbps avg
скриншот  скриншот  скриншот  скриншот  скриншот  

Общее
Полное имя : D:\Petrovich.2012.HDTVRip.RG.Russkie.serialy.&.Files-x\01.Petrovich.2012.HDTVRip.RG.Russkie.serialy.&.Files-x.avi
Формат : AVI
Формат/Информация : Audio Video Interleave
Размер файла : 600 Мбайт
Продолжительность : 47 м. 45 с.
Общий поток : 1757 Кбит/сек
Программа кодирования : VirtualDubMod 1.5.10.3 | www.virtualdub-fr.org || (build 2550/release)
Библиотека кодирования : VirtualDubMod build 2550/release

Видео
Идентификатор : 0
Формат : MPEG-4 Visual
Профиль формата : Advanced Simple@L5
Параметр BVOP формата : 1
Параметр QPel формата : Нет
Параметр GMC формата : Без точки перехода
Параметр матрицы формата : Выборочная
Идентификатор кодека : XVID
Идентификатор кодека/Подсказка : XviD
Продолжительность : 47 м. 45 с.
Битрейт : 1555 Кбит/сек
Ширина : 720 пикселей
Высота : 400 пикселей
Соотношение сторон : 16:9
Частота кадров : 25,000 кадров/сек
Цветовое пространство : YUV
Субдискретизация насыщенности : 4:2:0
Битовая глубина : 8 бит
Тип развёртки : Прогрессивная
Метод сжатия : С потерями
Бит/(Пиксели*Кадры) : 0.216
Размер потока : 531 Мбайт (89%)
Библиотека кодирования : XviD 73

Аудио
Идентификатор : 1
Формат : AC-3
Формат/Информация : Audio Coding 3
Расширение режима : CM (complete main)
Параметр Endianness формата : Big
Идентификатор кодека : 2000
Продолжительность : 47 м. 45 с.
Вид битрейта : Постоянный
Битрейт : 192 Кбит/сек
Каналы : 2 канала
Расположение каналов : Front: L R
Частота : 48,0 КГц
Частота кадров : 31,250 кадров/сек (1536 spf)
Метод сжатия : С потерями
Размер потока : 65,6 Мбайт (11%)
Выравнивание : Разделение по промежуткам
Продолжительность промежутка : 40 мс. (1,00 видеокадр)
Время предзагрузки промежутка : 500 мс.

piratbit.xyz



Скачать Петрович через торрент http://i69.fastpic.ru/big/2015/0906/a4/578fbe4a69dc55d740ad3fdcdcd3bea4.jpg Скачать фильм Петрович через торрент бесплантно в хорошем качестве Описание: Новый детективный сериал НТВ — о работе необычной адвокатской конторы «Петрович». Руководитель – Трофим Петрович Стрельцов — и ... 10 10 4
Торрент: Зарегистрирован [2020-02-14 08:32] · скачан: 24 раз
Статус: √ проверено
Размер: 14.07 GB
Как cкачать? Как скачать Петрович через торрент | qTorrent

% Раздел Тема Автор DL S | L
Наши сериалы [ 37.3 GB ] Петрович / Сезоны: 1 / Серии: 1-24 из 24 [2013 HDTVRip 720p] bober100 Скачать
1 | 0
Наши сериалы [ 12.68 GB ] Петрович / Сезон: 1 / Серии: 24 из [2012 SATRip] -=Cherry=- Скачать
1 | 0

28-11-2019 20:33  

Отключить всю рекламу на сайте

    Дорогой пользователь! Огромная просьба, поблагодарите релизера, оцените раздачу и оставьте свои комментарий, если Вы скачали Петрович через торрент бесплатно! Внесите свою лепту в развитие PiratBit!
    Комментировать посты могут только пользователи прошедшие не сложную регистрацию
    Показать сообщения:    

    Петрович через торрент
    Скачать бесплатно Петрович
    Петрович скачать торрент
    Петрович смотреть онлайн
    Cкачать фильм Петрович бесплатно
    Петрович скачать торрент в хорошем качестве
    Петрович смотреть онлайн бесплатно в хорошем качестве


    Вы не можете начинать темы
    Вы не можете отвечать на сообщения
    Вы не можете редактировать свои сообщения
    Вы не можете удалять свои сообщения
    Вы не можете голосовать в опросах
    Вы не можете прикреплять файлы к сообщениям
    Вы можете скачивать файлы