Ссылка на приватное зеркало всего за 1$. Внимание количество ограничено!!!

iTunes

1+1

iTunes

мы

MV0

1

WEB-DLRip

Джокер

Пифагор

Ведьмак / The Witcher сериал

iTunes

ПШазам

iTunes

Оно 2

iTunes

30
pack

Вам бонус

ВАЖНО

!!Акция!!

Alien_RageХит недели

RePack

Resident Evil 21

ИГРА 18+

pack

RePack

jed

!!Акция!!

Alien_Rage

RePack

fifa19

RePack

Assassins Creed: Odyssey

RePack

NEED FOR SPEED™ PAYBACK

4 сезон

9 сезон

Бесстыжие 9 сезон

Все сериалы

все сериалы на PB.wtf

RePack

FAR CRY 5
  

Он и она / Deux moi (Седрик Клапиш) [2019 г., Драма, мелодрама, комедия, HDRip, Дубляж "iTunes"] piratbit.xyz

Он и она через торрент piratbit.xyz

Раздают: 2 [ 0 KB/s ]
Размер: 711 MB | Добавлен: 8 д. назад | Торрент скачан:13 раз
Скачать  

11-02-2020 18:21 Он и она Скачать торрент  

Он и она / Deux moi
Год выпуска: 2019
Страна: Франция, Бельгия / Ce Qui Me Meut, StudioCanal, France 2 Cinéma
Жанр: Драма, мелодрама, комедия
Продолжительность: 01:50:15
Перевод: Дубляж (iTunes)

Режиссер: Седрик Клапиш

rating

В ролях: Франсуа Сивиль, Ана Жирардо, Камилль Коттен, Франсуа Берлеан, Симон Абкарян, Эй Айдара, Ребекка Мардер, Пьер Нинэ, Зинедин Суалем, Вирджини Хок

Описание: Он и Она живут в самом романтичном городе мира - Париже. Они ходят в один магазин, ужинают в одном ресторане, но никогда не встречались. Они одиноки и мечтают встретить свою любовь. Пересекутся ли их дороги однажды?

Качество: HDRip
Формат: AVI
Видео кодек: DivX
Аудио кодек: MP3
Видео: 640x352 (1.82:1), 23.976 fps, DivX Codec 4.x ~763 kbps avg, 0.14 bit/pixel
Аудио: 48 kHz, MPEG Layer 3, 2 ch, ~128.00 kbps avg
скриншот   скриншот   скриншот   скриншот   скриншот   скриншот   скриншот   скриншот  

Общее
Полное имя : F:\ФИЛЬМЫ\Он и она.2019.D.HDRip.avi
Формат : AVI
Формат/Информация : Audio Video Interleave
Размер файла : 711 Мбайт
Продолжительность : 1 ч. 50 м.
Общий поток : 901 Кбит/сек
Программа кодирования : VirtualDubMod 1.5.10.3 | www.virtualdub-fr.org || (build 2550/release)
Библиотека кодирования : VirtualDubMod build 2550/release

Видео
Идентификатор : 0
Формат : MPEG-4 Visual
Профиль формата : Advanced Simple@L5
Настройки формата : BVOP3 / GMC3 / QPel
Параметр BVOP формата : 3
Параметр QPel формата : Да
Параметр GMC формата : 3 точки перехода
Параметр матрицы формата : Default (MPEG)
Идентификатор кодека : DIVX
Идентификатор кодека/Информация : Project Mayo
Идентификатор кодека/Подсказка : DivX 4
Продолжительность : 1 ч. 50 м.
Битрейт : 764 Кбит/сек
Ширина : 640 пикселей
Высота : 352 пикселя
Соотношение сторон : 16:9
Частота кадров : 23,976 (24000/1001) кадра/сек
Цветовое пространство : YUV
Субдискретизация насыщенности : 4:2:0
Битовая глубина : 8 бит
Тип развёртки : Прогрессивная
Метод сжатия : С потерями
Бит/(Пиксели*Кадры) : 0.141
Размер потока : 603 Мбайт (85%)
Библиотека кодирования : XviD 1.2.1 (UTC 2008-12-04)

Аудио
Идентификатор : 1
Формат : MPEG Audio
Версия формата : Version 1
Профиль формата : Layer 3
Настройки формата : Joint stereo / MS Stereo
Идентификатор кодека : 55
Идентификатор кодека/Подсказка : MP3
Продолжительность : 1 ч. 50 м.
Вид битрейта : Постоянный
Битрейт : 128 Кбит/сек
Каналы : 2 канала
Частота : 48,0 КГц
Частота кадров : 41,667 кадра/сек (1152 SPF)
Метод сжатия : С потерями
Размер потока : 101 Мбайт (14%)
Выравнивание : Соединение по промежуткам
Продолжительность промежутка : 42 мс. (1,00 видеокадр)
Время предзагрузки промежутка : 504 мс.
Библиотека кодирования : LAME3.99r
Настройки программы : -m j -V 4 -q 2 -lowpass 17 -b 128

piratbit.xyz



Скачать Он и она через торрент http://pic1.kartinco.top/images/12/4izif.jpg Скачать фильм Он и она через торрент бесплантно в хорошем качестве Описание: Он и Она живут в самом романтичном городе мира - Париже. Они ходят в один магазин, ужинают в одном ресторане, но никогда не ... 10 10 1
Торрент: Зарегистрирован [2020-02-11 18:21] · скачан: 13 раз
Статус: √ проверено
Размер: 711 MB
Как cкачать? Как скачать Он и она через торрент | qTorrent

% Раздел Тема Автор DL S | L
Фильмы 2019-2020 [DVDrip, WEB-DLRip, HDrip] (DUB, MVO) [ 1.41 GB ] Он и она / Deux moi [2019 BDRip] - Twi7ter Скачать
34 | 0
Фильмы (Blu-ray, BD-Remux, HDDVD) [ 30.67 GB ] Он и она / Deux moi [2019 BD Remux 1080p] bober100 Скачать
2 | 0
Фильмы [HD 720p, 1080p] (Хороший звук DUB, MVO) [ 13.23 GB ] Он и она / Deux moi [2019 BDRip 1080p] bober100 Скачать
2 | 0
Фильмы [HD 720p, 1080p] (Хороший звук DUB, MVO) [ 7.25 GB ] Он и она / Deux moi [2019 BDRip 720p] bober100 Скачать
9 | 0
Фильмы 2019-2020 [DVDrip, WEB-DLRip, HDrip] (DUB, MVO) [ 1.41 GB ] Он и она / Deux moi [2019 BDRip] bober100 Скачать
8 | 0

28-11-2019 20:33  

Отключить всю рекламу на сайте

    Дорогой пользователь! Огромная просьба, поблагодарите релизера, оцените раздачу и оставьте свои комментарий, если Вы скачали Он и она через торрент бесплатно! Внесите свою лепту в развитие PiratBit!
    Комментировать посты могут только пользователи прошедшие не сложную регистрацию
    Показать сообщения:    

    Он и она через торрент
    Скачать бесплатно Он и она
    Он и она скачать торрент
    Он и она смотреть онлайн
    Cкачать фильм Он и она бесплатно
    Он и она скачать торрент в хорошем качестве
    Он и она смотреть онлайн бесплатно в хорошем качестве


    Вы не можете начинать темы
    Вы не можете отвечать на сообщения
    Вы не можете редактировать свои сообщения
    Вы не можете удалять свои сообщения
    Вы не можете голосовать в опросах
    Вы не можете прикреплять файлы к сообщениям
    Вы можете скачивать файлы