Ссылка на приватное зеркало всего за 1$. Внимание количество ограничено!!!

iTunes

1+1

iTunes

мы

MV0

1

WEB-DLRip

Джокер

Пифагор

Ведьмак / The Witcher сериал

iTunes

ПШазам

iTunes

Оно 2

iTunes

30
pack

Вам бонус

ВАЖНО

!!Акция!!

Alien_RageХит недели

RePack

Resident Evil 21

ИГРА 18+

pack

RePack

jed

!!Акция!!

Alien_Rage

RePack

fifa19

RePack

Assassins Creed: Odyssey

RePack

NEED FOR SPEED™ PAYBACK

4 сезон

9 сезон

Бесстыжие 9 сезон

Все сериалы

все сериалы на PB.wtf

RePack

FAR CRY 5
  

Бунюэль в лабиринте черепах / Buñuel en el laberinto de las tortugas (Сальвадор Симо) [2018, мультфильм, анимационный, история, драма, биография, байопик, BDRip 1080p] [MVO] (iTunes) piratbit.xyz

Бунюэль в лабиринте черепах через торрент piratbit.xyz

Раздают: 1 [ 0 KB/s ]
Размер: 7.26 GB | Добавлен: 10 д. назад | Торрент скачан:35 раз
Скачать  

09-02-2020 19:37 Бунюэль в лабиринте черепах Скачать торрент  

Бунюэль в лабиринте черепах / Buñuel en el laberinto de las tortugas Год выпуска: 2018
Страна: Испания, Нидерланды
Студия: Sygnatia, The Glow, Submarine
Жанр: мультфильм, анимационный, история, драма, биография, байопик
Продолжительность: 01:20:01
Перевод: Профессиональный (многоголосый закадровый) [iTunes]
Субтитры: Английские, французские, испанские (forced), датские, норвежские, шведские

Режиссер: Сальвадор Симо / Salvador Simó

В ролях: Хорхе Усон, Фернандо Рамос, Луис Энрике де Томаш, Сирил Коррал, Пепа Грация, Рачель Ласкар, Габриэль Латорре, Алекс Мартос, Филипп Новицки, Виктор Нуньес, Фермин Нуньес

Описание: Париж, 1930 год. Премьера сюрреалистического фильма «Золотой век» вызывает общественный скандал. От молодого и бескомпромиссного режиссера картины Луиса Бунюэля отворачиваются не только продюсеры и меценаты, но и его соавтор, художник Сальвадор Дали. Мятежный испанец пытается найти деньги на свой новый проект — документальный фильм о беднейшем регионе страны Лас Урдес, где жизненный уклад настолько ужасен, что кажется порождением ночного кошмара. Бунюэль возвращается на родину, где встречается со своим давним приятелем, скульптором-анархистом Рамоном Асином. Надеясь помочь другу, Асин покупает лотерейный билет и… выигрывает крупную сумму денег. Бунюэль приступает к съемкам. Однако его методы работы шокируют немногочисленных единомышленников — членов съемочной группы…

rating
Автор релиза - &

Рекламы нет!



Качество видео: BDRip 1080p
Формат видео: MKV

Видео: MPEG-4, 1920x804 (2,40:1), 24 fps, 11101 kbps, 0.300 bit/pixel
Аудио 1: Русский AC3, 48000 Гц, 6ch, 384 kbps
Аудио 2: Испанский DTS 5.1 / 48 kHz / 1509 kbps / 24-bit
Формат субтитров: softsub (SRT)
x264 [info]: frame I:1003  Avg QP:13.31  size:203780
x264 [info]: frame P:21323 Avg QP:14.46 size: 85401
x264 [info]: frame B:92898 Avg QP:15.59 size: 49916
x264 [info]: consecutive B-frames: 1.6% 1.0% 3.6% 6.7% 16.9% 52.8% 8.0% 3.0% 2.7% 3.5%
x264 [info]: mb I I16..4: 2.8% 81.4% 15.8%
x264 [info]: mb P I16..4: 0.6% 14.9% 1.0% P16..4: 22.5% 32.0% 12.9% 2.2% 0.1% skip:13.9%
x264 [info]: mb B I16..4: 0.2% 4.3% 0.1% B16..8: 32.1% 27.4% 7.1% direct: 5.7% skip:23.1% L0:45.1% L1:41.8% BI:13.1%
x264 [info]: ref P L0: 46.4% 4.1% 32.1% 17.1% 0.4% 0.0%
x264 [info]: ref B L0: 74.5% 20.6% 4.8%
x264 [info]: ref B L1: 85.8% 14.2%
encoded 115224 frames, 4.85 fps, 11101.84 kb/s

Общее
Уникальный идентификатор : 280953543515631833287947094270991895022 (0xD35DAF2A9ACC0E6C8103A351160389EE)
Полное имя : Bunuel.en.el.laberinto.de.las.tortugas.2018.BDRip.1080p.TeamHD-ylnian.mkv
Формат : Matroska
Версия формата : Version 4
Размер файла : 7,26 Гбайт
Продолжительность : 1 ч. 20 м.
Общий поток : 13,0 Мбит/сек
Название фильма : Bunuel.en.el.laberinto.de.las.tortugas.2018.BDRip.1080p.TeamHD-ylnian
Дата кодирования : UTC 2020-02-09 03:56:40
Программа кодирования : mkvmerge v43.0.0 ('The Quartermaster') 64-bit
Библиотека кодирования : libebml v1.3.10 + libmatroska v1.5.2

Видео
Идентификатор : 1
Формат : AVC
Формат/Информация : Advanced Video Codec
Профиль формата : High@L4.1
Настройки формата : CABAC / 4 Ref Frames
Параметр CABAC формата : Да
Параметр RefFrames формата : 4 кадра
Идентификатор кодека : V_MPEG4/ISO/AVC
Продолжительность : 1 ч. 20 м.
Битрейт : 11,1 Мбит/сек
Ширина : 1920 пикселей
Высота : 804 пикселя
Соотношение сторон : 2,40:1
Режим частоты кадров : Постоянный
Частота кадров : 24,000 кадра/сек
Цветовое пространство : YUV
Субдискретизация насыщенности : 4:2:0
Битовая глубина : 8 бит
Тип развёртки : Прогрессивная
Бит/(Пиксели*Кадры) : 0.300
Размер потока : 6,20 Гбайт (85%)
Заголовок : Bunuel.en.el.laberinto.de.las.tortugas.2018.BDRip.1080p.TeamHD-ylnian
Библиотека кодирования : x264 core 157 r2969 d4099dd
Настройки программы : cabac=1 / ref=4 / deblock=1:-3:-3 / analyse=0x3:0x133 / me=umh / subme=11 / psy=1 / psy_rd=1.05:0.00 / mixed_ref=1 / me_range=64 / chroma_me=1 / trellis=2 / 8x8dct=1 / cqm=0 / deadzone=21,11 / fast_pskip=1 / chroma_qp_offset=-4 / threads=12 / lookahead_threads=2 / sliced_threads=0 / nr=0 / decimate=1 / interlaced=0 / bluray_compat=0 / constrained_intra=0 / bframes=9 / b_pyramid=2 / b_adapt=2 / b_bias=0 / direct=2 / weightb=1 / open_gop=0 / weightp=2 / keyint=250 / keyint_min=23 / scenecut=40 / intra_refresh=0 / rc_lookahead=250 / rc=crf / mbtree=0 / crf=16.8 / qcomp=0.80 / qpmin=0 / qpmax=69 / qpstep=4 / vbv_maxrate=50000 / vbv_bufsize=62500 / crf_max=0.0 / nal_hrd=none / filler=0 / ip_ratio=1.30 / pb_ratio=1.20 / aq=2:0.90
Язык : Spanish
Default : Да
Forced : Да

Аудио #1
Идентификатор : 2
Формат : AC-3
Формат/Информация : Audio Coding 3
Коммерческое название : Dolby Digital
Идентификатор кодека : A_AC3
Продолжительность : 1 ч. 20 м.
Вид битрейта : Постоянный
Битрейт : 384 Кбит/сек
Каналы : 6 каналов
ChannelLayout : L R C LFE Ls Rs
Частота : 48,0 КГц
Частота кадров : 31,250 кадров/сек (1536 SPF)
Метод сжатия : С потерями
Размер потока : 220 Мбайт (3%)
Заголовок : MVO - iTunes
Язык : Russian
ServiceKind/String : Complete Main
Default : Да
Forced : Да

Аудио #2
Идентификатор : 3
Формат : DTS
Формат/Информация : Digital Theater Systems
Идентификатор кодека : A_DTS
Продолжительность : 1 ч. 20 м.
Вид битрейта : Постоянный
Битрейт : 1509 Кбит/сек
Каналы : 6 каналов
ChannelLayout : C L R Ls Rs LFE
Частота : 48,0 КГц
Частота кадров : 93,750 кадра/сек (512 SPF)
Битовая глубина : 24 бит
Метод сжатия : С потерями
Размер потока : 864 Мбайт (12%)
Язык : Spanish
Default : Нет
Forced : Нет

Текст #1
Идентификатор : 4
Формат : UTF-8
Идентификатор кодека : S_TEXT/UTF8
Идентификатор кодека/Информация : UTF-8 Plain Text
Продолжительность : 1 ч. 12 м.
Битрейт : 46 бит/сек
ElementCount : 776
Размер потока : 24,8 Кбайт (0%)
Язык : English
Default : Нет
Forced : Нет

Текст #2
Идентификатор : 5
Формат : UTF-8
Идентификатор кодека : S_TEXT/UTF8
Идентификатор кодека/Информация : UTF-8 Plain Text
Продолжительность : 1 ч. 17 м.
Битрейт : 38 бит/сек
ElementCount : 822
Размер потока : 21,6 Кбайт (0%)
Язык : French
Default : Нет
Forced : Нет

Текст #3
Идентификатор : 6
Формат : UTF-8
Идентификатор кодека : S_TEXT/UTF8
Идентификатор кодека/Информация : UTF-8 Plain Text
Продолжительность : 40 м. 6 с.
Битрейт : 11 бит/сек
ElementCount : 97
Размер потока : 3,50 Кбайт (0%)
Заголовок : forced
Язык : Spanish
Default : Нет
Forced : Нет

Текст #4
Идентификатор : 7
Формат : UTF-8
Идентификатор кодека : S_TEXT/UTF8
Идентификатор кодека/Информация : UTF-8 Plain Text
Продолжительность : 1 ч. 12 м.
Битрейт : 43 бит/сек
ElementCount : 564
Размер потока : 23,3 Кбайт (0%)
Язык : Danish
Default : Нет
Forced : Нет

Текст #5
Идентификатор : 8
Формат : UTF-8
Идентификатор кодека : S_TEXT/UTF8
Идентификатор кодека/Информация : UTF-8 Plain Text
Продолжительность : 1 ч. 12 м.
Битрейт : 42 бит/сек
ElementCount : 560
Размер потока : 22,7 Кбайт (0%)
Язык : Norwegian
Default : Нет
Forced : Нет

Текст #6
Идентификатор : 9
Формат : UTF-8
Идентификатор кодека : S_TEXT/UTF8
Идентификатор кодека/Информация : UTF-8 Plain Text
Продолжительность : 1 ч. 12 м.
Битрейт : 41 бит/сек
ElementCount : 568
Размер потока : 22,3 Кбайт (0%)
Язык : Swedish
Default : Нет
Forced : Нет

Меню
00:00:00.000 : es:01
00:04:43.875 : es:02
00:07:09.333 : es:03
00:11:34.083 : es:04
00:14:48.292 : es:05
00:20:09.167 : es:06
00:26:06.292 : es:07
00:30:48.542 : es:08
00:36:10.083 : es:09
00:39:59.875 : es:10
00:44:52.583 : es:11
00:51:13.167 : es:12
00:56:50.208 : es:13
01:04:30.458 : es:14
01:11:31.083 : es:15
01:14:05.500 : es:16
12 wins & 18 nominations - https://www.imdb.com/title/tt7336470/awards?ref_=tt_awd

Гойя, 2020 год
Победитель (1):
Лучший анимационный фильм
Номинации (3):
Лучший режиссер-дебютант (Сальвадор Симо)
Лучший адаптированный сценарий
Лучший оригинальный саундтрек

Европейская киноакадемия, 2019 год
Победитель (1):
Лучший анимационный фильм
скриншот  скриншот  скриншот  
piratbit.xyz



Скачать Бунюэль в лабиринте черепах через торрент https://img15.lostpic.net/2020/02/08/7e02aa431e7e98bd89dbc16f4fd971e2.png Скачать фильм Бунюэль в лабиринте черепах через торрент бесплантно в хорошем качестве Описание: Париж, 1930 год. Премьера сюрреалистического фильма «Золотой век» вызывает общественный скандал. От молодого и бескомпромиссного ... 7 10 6
Торрент: Зарегистрирован [2020-02-09 19:37] · скачан: 35 раз
Статус: √ проверено
Размер: 7.26 GB
Как cкачать? Как скачать Бунюэль в лабиринте черепах через торрент | qTorrent

% Раздел Тема Автор DL S | L
Иностранные мультфильмы [ 1.45 GB ] Бунюэль в лабиринте черепах / Buñuel en el laberinto de las tortugas [2018 мультфильм анимационный история биография байопик BDRip] [MVO] () killermax2013 Скачать
4 | 0

28-11-2019 20:33  

Отключить всю рекламу на сайте

    Дорогой пользователь! Огромная просьба, поблагодарите релизера, оцените раздачу и оставьте свои комментарий, если Вы скачали Бунюэль в лабиринте черепах через торрент бесплатно! Внесите свою лепту в развитие PiratBit!
    Комментировать посты могут только пользователи прошедшие не сложную регистрацию
    Показать сообщения:    

    Бунюэль в лабиринте черепах через торрент
    Скачать бесплатно Бунюэль в лабиринте черепах
    Бунюэль в лабиринте черепах скачать торрент
    Бунюэль в лабиринте черепах смотреть онлайн
    Cкачать фильм Бунюэль в лабиринте черепах бесплатно
    Бунюэль в лабиринте черепах скачать торрент в хорошем качестве
    Бунюэль в лабиринте черепах смотреть онлайн бесплатно в хорошем качестве


    Вы не можете начинать темы
    Вы не можете отвечать на сообщения
    Вы не можете редактировать свои сообщения
    Вы не можете удалять свои сообщения
    Вы не можете голосовать в опросах
    Вы не можете прикреплять файлы к сообщениям
    Вы можете скачивать файлы