Ссылка на приватное зеркало всего за 1$. Внимание количество ограничено!!!

iTunes

1+1

iTunes

мы

MV0

1

WEB-DLRip

Джокер

Пифагор

Ведьмак / The Witcher сериал

iTunes

ПШазам

iTunes

Оно 2

iTunes

30
pack

Вам бонус

ВАЖНО

!!Акция!!

Alien_RageХит недели

RePack

Resident Evil 21

ИГРА 18+

pack

RePack

jed

!!Акция!!

Alien_Rage

RePack

fifa19

RePack

Assassins Creed: Odyssey

RePack

NEED FOR SPEED™ PAYBACK

4 сезон

9 сезон

Бесстыжие 9 сезон

Все сериалы

все сериалы на PB.wtf

RePack

FAR CRY 5
  

Триггер / Провокатор / Сезоны: 1 / Серии: 1-7 из 16 (Дмитрий Тюрин) [2018, драма, WEB-DLRip] piratbit.xyz

Триггер через торрент piratbit.xyz

Раздают: 1 [ 0 KB/s ] Качают: 1 [ 0 KB/s ]
Размер: 4.1 GB | Добавлен: 4 д. назад | Торрент скачан:5 раз
Скачать  

07-02-2020 19:09 Триггер Скачать торрент  

Триггер | Провокатор
Год выпуска: 2018
Страна: Россия
Жанр: драма
Продолжительность: ~ 00:50:00 серия
Субтитры: отсутствуют

Режиссер: Дмитрий Тюрин



В ролях: Максим Матвеев, Игорь Костолевский, Светлана Иванова, Виктория Маслова, Роман Маякин, Владислав Тирон, Ангелина Стречина, Марк Юсеф, Данила Дунаев, Ян Цапник, Даниил Воробьёв, Янина Малинчик, Олег Масленников-Войтов, Дарья Буткеева, Маруся Пестунова, Екатерина Соломатина, Хельга Филиппова, Екатерина Соколова-Жубер, Лиза Климова, Мария Ахметзянова, Антон Денисенко, Антонина Паперная, Сергей Гурьев, Максим Костромыкин, Екатерина Копанова, Олег Каменщиков

Описание: Артем Стрелецкий – психолог, профессиональный провокатор, практикующий «шоковый» метод психотерапии. Большинство психологов «нянчатся» с клиентами, по полгода выслушивают жалобы на жизнь, сочувствуют – и получают кругленькие суммы за курс сеансов. Артем провоцирует клиентов, оскорбляет их, смеется над ними, специально подстраивает неловкие ситуации и намеренно выталкивает из зоны психологического комфорта. Провокации активируют в психике человека желание немедленно разобраться со своими проблемами, и решение находится очень быстро – буквально за один-два сеанса. Практика Артема процветает, пока один из клиентов Стрелецкого не накладывает на себя руки. Выйдя на свободу после четырехлетнего заключения по делу о доведении до самоубийства, Артем твёрдо намеревается всё исправить – доказать свою невиновность и вернуть любимую жену Дашу...

Качество: WEB-DLRip
Формат: AVI

Видео: 720x400 (1.80:1), 25 fps, XviD ~1450 kbps avg, 0.201 bit/pixel
Аудио: 48.0 kHz, AC3 Dolby Digital, 2/0 (L,R) ch, ~ 192 kbps
скриншот  скриншот  скриншот  скриншот  скриншот  

General
Complete name : D:\Triger.2018.WEB-DLRip.25Kuzmich\Triger.e01.WEB-DLRip.25Kuzmich.avi
Format : AVI
Format/Info : Audio Video Interleave
File size : 600 MiB
Duration : 50 min 51 s
Overall bit rate : 1 651 kb/s
Writing application : VirtualDubMod 1.5.10.3 | www.virtualdub-fr.org || (build 2550/release)
Writing library : VirtualDubMod build 2550/release

Video
ID : 0
Format : MPEG-4 Visual
Format profile : Advanced Simple@L5
Format settings : BVOP1
Format settings, BVOP : 1
Format settings, QPel : No
Format settings, GMC : No warppoints
Format settings, Matrix : Default (MPEG)
Codec ID : XVID
Codec ID/Hint : XviD
Duration : 50 min 51 s
Bit rate : 1 449 kb/s
Width : 720 pixels
Height : 400 pixels
Display aspect ratio : 16:9
Frame rate : 25.000 FPS
Color space : YUV
Chroma subsampling : 4:2:0
Bit depth : 8 bits
Scan type : Progressive
Compression mode : Lossy
Bits/(Pixel*Frame) : 0.201
Stream size : 527 MiB (88%)
Writing library : XviD 73

Audio
ID : 1
Format : AC-3
Format/Info : Audio Coding 3
Codec ID : 2000
Duration : 50 min 51 s
Bit rate mode : Constant
Bit rate : 192 kb/s
Channel(s) : 2 channels
Channel positions : Front: L R
Sampling rate : 48.0 kHz
Frame rate : 31.250 FPS (1536 SPF)
Bit depth : 16 bits
Compression mode : Lossy
Stream size : 69.8 MiB (12%)
Alignment : Split accross interleaves
Interleave, duration : 40 ms (1.00 video frame)
Interleave, preload duratio : 500 ms
Service kind : Complete Main

Внимание! Раздача ведётся путём добавления новых серий; при каждом добавлении создаётся новый торрент. Чтобы начать докачку новой серии, пользователям необходимо сделать следующее:
(1) остановить скачивание,
(2) удалить старый торрент у себя из клиента (старые серии удалять не надо),
(3) скачать новый торрент и запустить его у себя в клиенте вместо старого, при этом указать клиенту путь в старую папку куда и должно происходить скачивание новых серий.

Ваш клиент при этом должен произвести хеширование (проверку) старой папки (если не производит сам - помогите ему сделать это), и будет докачивать только те серии которых у вас ещё нет. Старые серии при этом не удаляются, а продолжают раздаваться!

Eсли вы уже удалили старые серии, то предотвратить повторную закачку старых серий можно, отжав галочку в соответсвующих местах при запуске нового торрента. По возможности, желательно не удалять старые серии как можно дольше чтобы релизёр не столько продолжал раздавать старые серии, а смог сконцентрироваться на новых.
piratbit.xyz



Скачать Триггер через торрент https://b.radikal.ru/b29/2002/0e/0c464d9fac75.jpg Скачать фильм Триггер через торрент бесплантно в хорошем качестве Описание: Артем Стрелецкий – психолог, провокатор, практикующий «шоковый» метод психотерапии. Большинство психологов ... 8.9 10 7
Торрент: Зарегистрирован [2020-02-20 22:42] · скачан: 5 раз
Статус: √ проверено
Размер: 4.1 GB
Как cкачать? Как скачать Триггер через торрент | qTorrent

28-11-2019 20:33  

Отключить всю рекламу на сайте

    Дорогой пользователь! Огромная просьба, поблагодарите релизера, оцените раздачу и оставьте свои комментарий, если Вы скачали Триггер через торрент бесплатно! Внесите свою лепту в развитие PiratBit!
    Комментировать посты могут только пользователи прошедшие не сложную регистрацию
    Показать сообщения:    

    Триггер через торрент
    Скачать бесплатно Триггер
    Триггер скачать торрент
    Триггер смотреть онлайн
    Cкачать фильм Триггер бесплатно
    Триггер скачать торрент в хорошем качестве
    Триггер смотреть онлайн бесплатно в хорошем качестве


    Вы не можете начинать темы
    Вы не можете отвечать на сообщения
    Вы не можете редактировать свои сообщения
    Вы не можете удалять свои сообщения
    Вы не можете голосовать в опросах
    Вы не можете прикреплять файлы к сообщениям
    Вы можете скачивать файлы