Ссылка на приватное зеркало всего за 1$. Внимание количество ограничено!!!

iTunes

1+1

iTunes

мы

MV0

1

WEB-DLRip

Джокер

Пифагор

Ведьмак / The Witcher сериал

iTunes

ПШазам

iTunes

Оно 2

iTunes

30
pack

Вам бонус

ВАЖНО

!!Акция!!

Alien_RageХит недели

RePack

Resident Evil 21

ИГРА 18+

pack

RePack

jed

!!Акция!!

Alien_Rage

RePack

fifa19

RePack

Assassins Creed: Odyssey

RePack

NEED FOR SPEED™ PAYBACK

4 сезон

9 сезон

Бесстыжие 9 сезон

Все сериалы

все сериалы на PB.wtf

RePack

FAR CRY 5
  

Великолепная пятерка / Сезон: 2 / Серии: 1-12 из 32 (Сергей Полуянов) [2020, Детектив, драма, WEBRip 1080p] piratbit.xyz

Великолепная пятерка через торрент piratbit.xyz

Качают: 1 [ 0 KB/s ]
Размер: 6.06 GB | Добавлен: 3 д. назад | Торрент скачан:1 раз
Скачать  

04-02-2020 10:29 Великолепная пятерка Скачать торрент  

Великолепная пятерка
Год выпуска: 2020
Страна: Россия
Жанр: Детектив, драма
Продолжительность: ~ 00:40:00 серия
Субтитры: отсутствуют

Режиссер: Сергей Полуянов



В ролях: Павел Григорьев, Андрей Горбачёв, Алексей Красноцветов, Нодар Джанелидзе, Константин Гришанов, Егор Кутенков, Ева Жук, Мария Минакова, Илья Рябов, Алёна Леонтьева, Николай Сороканов, Ирина Улановская, Ирина Веснина, Юрий Уткин, Владимир Ковтун, Светлана Терентьева, Олеся Бережная, Анастасия Ярёменко, Валентина Иккерт, Роман Притула, Виктория Горбач-Орлова, Арсений Бородин, Данила Пестриков, Арсений Александров

Описание: Продолжение детективного сериала о буднях оперов «убойного» отдела Петровского РОВД Петербурга. Майор Павел Шапошников, капитаны Дмитрий Красавченко и Тимур Бубнов, старлей Антон Ветров и лейтенант Владимир Кузьмин — пять героев, пять разных характеров, которые сплотил их командир, подполковник Андрей Голованов. Время изменилось, милиция стала полицией, город преобразился, но человеческие страсти по-прежнему кипят вовсю. Месть, зависть, страх, любострастие, корысть толкают одних на преступления, а честь, совесть, справедливость и смелость заставляют других противостоять злу. Герои «Великолепной Пятерки» ежедневно сталкиваются с бедами простых жителей Петербурга, занимаются расследованием преступлений и наказывают зло. Удивительно, но в этой рутине у них остается время на любовь, дружбу и юмор.

Качество: WEBRip 1080p
Формат: MKV

Видео: MPEG-4 AVC, ~ 2030 Кбит/с, 1920x1080
Аудио: AC3, 2 ch, 192 Кбит/с
скриншот  скриншот  скриншот  скриншот  скриншот  

Общее
Уникальный идентификатор : 212975129124626515199432152761074438423 (0xA039849269BCB9BF910A7D4FD127D117)
Полное имя : D:\Великолепная пятерка.2020. S02. WEB-DL 1080p\01. Великолепная пятерка.2020. S02. WEB-DL 1080p.mkv
Формат : Matroska
Версия формата : Version 2
Размер файла : 583 Мбайт
Продолжительность : 40 м. 9 с.
Общий поток : 2029 Кбит/сек
Дата кодирования : UTC 2020-02-04 09:18:03
Программа кодирования : mkvmerge v7.8.0 ('River Man') 32bit built on Apr 3 2015 12:11:22
Библиотека кодирования : libebml v1.3.1 + libmatroska v1.4.2

Видео
Идентификатор : 1
Формат : AVC
Формат/Информация : Advanced Video Codec
Профиль формата : High@L4
Параметр CABAC формата : Да
Параметр RefFrames формата : 3 кадра
Идентификатор кодека : V_MPEG4/ISO/AVC
Продолжительность : 40 м. 9 с.
Битрейт : 1900 Кбит/сек
Ширина : 1920 пикселей
Высота : 1080 пикселей
Соотношение сторон : 16:9
Режим частоты кадров : Постоянный
Частота кадров : 25,000 кадров/сек
Цветовое пространство : YUV
Субдискретизация насыщенности : 4:2:0
Битовая глубина : 8 бит
Тип развёртки : Прогрессивная
Бит/(Пиксели*Кадры) : 0.035
Размер потока : 516 Мбайт (89%)
Библиотека кодирования : x264 core 155 r2901 7d0ff22
Default : Да
Forced : Нет
Цветовой диапазон : Limited
Основные цвета : BT.709
Характеристики трансфера : BT.709
Коэффициенты матрицы : BT.709

Аудио
Идентификатор : 2
Формат : AC-3
Формат/Информация : Audio Coding 3
Расширение режима : CM (complete main)
Параметр Endianness формата : Big
Идентификатор кодека : A_AC3
Продолжительность : 40 м. 9 с.
Вид битрейта : Постоянный
Битрейт : 192 Кбит/сек
Каналы : 2 канала
Расположение каналов : Front: L R
Частота : 44,1 КГц
Частота кадров : 28,711 кадров/сек (1536 spf)
Метод сжатия : С потерями
Размер потока : 55,2 Мбайт (9%)
Default : Да
Forced : Нет

Внимание! Раздача ведётся путём добавления новых серий; при каждом добавлении создfётся новый торрент. Чтобы начать докачку новой серии, пользователям необходимо сделать следующее: (1) остановить скачивание, (2) удалить старый торрент у себя из клиента (старые серии удалять не надо), (3) скачать новый торрент и запустить его у себя в клиенте вместо старого, при этом указать клиенту путь в старую папку куда и должно происходить скачивание новых серий.

Ваш клиент при этом должен произвести хеширование (проверку) старой папки (если не производит сам - помогите ему сделать это), и будет докачивать только те серии которых у вас ещё нет. Старые серии при этом не удаляются, а продолжают раздаваться!

Eсли вы уже удалили старые серии, то предотвратить повторную закачку старых серий можно, отжав галочку в соответсвующих местах при запуске нового торрента.
piratbit.xyz



Скачать Великолепная пятерка через торрент https://i111.fastpic.ru/big/2020/0203/9a/80f65a68911f03d84219a50d320fa79a.jpg Скачать фильм Великолепная пятерка через торрент бесплантно в хорошем качестве Описание: Продолжение детективного сериала о буднях оперов «убойного» отдела Петровского РОВД Петербурга. Майор Павел Шапошников, капитаны ... 10 10 3
Торрент: Зарегистрирован [2020-02-20 16:06] · скачан: 1 раз
Статус: √ проверено
Размер: 6.06 GB
Как cкачать? Как скачать Великолепная пятерка через торрент | qTorrent

% Раздел Тема Автор DL S | L
Наши сериалы [ 5.76 GB ] Великолепная пятерка / Сезон: 2 / Серии: 1-12 из 32 [2020 SATRip-AVC] aleksan55 Скачать
1 | 0

28-11-2019 20:33  

Отключить всю рекламу на сайте


    Дорогой пользователь! Огромная просьба, поблагодарите релизера, оцените раздачу и оставьте свои комментарий, если Вы скачали Великолепная пятерка через торрент бесплатно! Внесите свою лепту в развитие PiratBit!
    Комментировать посты могут только пользователи прошедшие не сложную регистрацию
    Показать сообщения:    

    Великолепная пятерка через торрент
    Скачать бесплатно Великолепная пятерка
    Великолепная пятерка скачать торрент
    Великолепная пятерка смотреть онлайн
    Cкачать фильм Великолепная пятерка бесплатно
    Великолепная пятерка скачать торрент в хорошем качестве
    Великолепная пятерка смотреть онлайн бесплатно в хорошем качестве


    Вы не можете начинать темы
    Вы не можете отвечать на сообщения
    Вы не можете редактировать свои сообщения
    Вы не можете удалять свои сообщения
    Вы не можете голосовать в опросах
    Вы не можете прикреплять файлы к сообщениям
    Вы можете скачивать файлы