Ссылка на приватное зеркало всего за 1$. Внимание количество ограничено!!!

iTunes

1+1

iTunes

мы

MV0

1

WEB-DLRip

Джокер

Пифагор

Ведьмак / The Witcher сериал

iTunes

ПШазам

iTunes

Оно 2

iTunes

30
pack

Вам бонус

ВАЖНО

!!Акция!!

Alien_RageХит недели

RePack

Resident Evil 21

ИГРА 18+

pack

RePack

jed

!!Акция!!

Alien_Rage

RePack

fifa19

RePack

Assassins Creed: Odyssey

RePack

NEED FOR SPEED™ PAYBACK

4 сезон

9 сезон

Бесстыжие 9 сезон

Все сериалы

все сериалы на PB.wtf

RePack

FAR CRY 5
  

Бой / War (Сиддхарт Ананд / Siddharth Anand) [2019, боевик, триллер, BDRip 1080p] 2x[MVO] (HONEY&HASEENA, OnisFilms) piratbit.xyz

Бой через торрент piratbit.xyz

Раздают: 6 [ 0 KB/s ]
Размер: 15.26 GB | Добавлен: 21 д. назад | Торрент скачан:24 раза
Скачать  

29-01-2020 16:07 Бой Скачать торрент  

Бой / War Страна: Индия
Жанр: боевик, триллер
Год выпуска: 2019
Продолжительность: 02:33:06

Перевод: Любительский (многоголосый закадровый) / HONEY&HASEENA
Перевод 2: Любительский (многоголосый закадровый) / OnisFilms
Субтитры: русские (на песни), английские
Оригинальная аудиодорожка: хинди

Режиссер: Сиддхарт Ананд / Siddharth Anand

В ролях: Ритик Рошан, Тайгер Шрофф, Ваани Капур, Ашутош Рана, Анупурия Гоенка, Яш Радж Синг, Машхур Амрохи, Санджив Ватса, Дипаннита Шарма, Сони Раздан

Описание: Сотрудник спецслужб получает задание обезвредить бывшего коллегу и собственного наставника, который внезапно убил нескольких своих и теперь объявлен врагом государства. Противостояние становится для обоих делом чести и выливается в настоящую войну.



Сэмпл:

Тип релиза: BDRip 1080p
Контейнер: MKV

Видео: MPEG4 Video (H264) , 1920х800 , 2.40:1 , 11,5 Мбит/сек , 24.000 FPS
Аудио: Russian , AC-3 Dolby Digital , 6 channels (L R C LFE Ls Rs) , 48.0 kHz , 640 Кбит/сек (HONEY&HASEENA)
Аудио 2: Russian , AC-3 Dolby Digital , 2 channels (L R) , 48.0 kHz , 192 Кбит/сек (OnisFilms)
Аудио 3: Hindi , AC-3 Dolby Digital , 6 channels (L R C LFE Ls Rs) , 48.0 kHz , 640 Кбит/сек (Оригинал)
Аудио 4: Tamil , AC-3 Dolby Digital , 6 channels (L R C LFE Ls Rs) , 48.0 kHz , 640 Кбит/сек
Аудио 5: Telugu , AC-3 Dolby Digital , 6 channels (L R C LFE Ls Rs) , 48.0 kHz , 640 Кбит/сек
Формат субтитров: русские (SRT) , английские (PGS)
Общее
Уникальный идентификатор : 41769902767796222795979354927693524872 (0x1F6C9734EF3215EE87F612F1447F6F88)
Формат : Matroska
Версия формата : Version 4
Размер файла : 15,3 Гбайт
Продолжительность : 2 ч. 33 м.
Общий поток : 14,3 Мбит/сек
Дата кодирования : UTC 2020-01-29 15:14:18
Программа кодирования : mkvmerge v25.0.0 ('Prog Noir') 64-bit
Библиотека кодирования : libebml v1.3.6 + libmatroska v1.4.9

Видео
Идентификатор : 1
Формат : AVC
Формат/Информация : Advanced Video Codec
Профиль формата : High@L4.2
Настройки формата : CABAC / 5 Ref Frames
Параметр CABAC формата : Да
Параметр RefFrames формата : 5 кадров
Идентификатор кодека : V_MPEG4/ISO/AVC
Продолжительность : 2 ч. 33 м.
Битрейт : 11,5 Мбит/сек
Ширина : 1920 пикселей
Высота : 800 пикселей
Соотношение сторон : 2,40:1
Режим частоты кадров : Постоянный
Частота кадров : 24,000 кадра/сек
Цветовое пространство : YUV
Субдискретизация насыщенности : 4:2:0
Битовая глубина : 8 бит
Тип развёртки : Прогрессивная
Бит/(Пиксели*Кадры) : 0.312
Размер потока : 12,3 Гбайт (81%)
Библиотека кодирования : x264 core 157 r2969 d4099dd
Настройки программы : cabac=1 / ref=5 / deblock=1:-1:-1 / analyse=0x3:0x113 / me=hex / subme=8 / psy=1 / psy_rd=1.00:0.15 / mixed_ref=1 / me_range=16 / chroma_me=1 / trellis=2 / 8x8dct=1 / cqm=0 / deadzone=21,11 / fast_pskip=1 / chroma_qp_offset=-3 / threads=25 / lookahead_threads=4 / sliced_threads=0 / nr=0 / decimate=1 / interlaced=0 / bluray_compat=0 / constrained_intra=0 / bframes=3 / b_pyramid=2 / b_adapt=1 / b_bias=0 / direct=3 / weightb=1 / open_gop=0 / weightp=2 / keyint=250 / keyint_min=24 / scenecut=40 / intra_refresh=0 / rc_lookahead=50 / rc=crf / mbtree=1 / crf=20.0 / qcomp=0.60 / qpmin=0 / qpmax=69 / qpstep=4 / vbv_maxrate=62500 / vbv_bufsize=78125 / crf_max=0.0 / nal_hrd=none / filler=0 / ip_ratio=1.40 / aq=1:1.00
Default : Да
Forced : Нет
Цветовой диапазон : Limited
Основные цвета : BT.709
Характеристики трансфера : BT.709
Коэффициенты матрицы : BT.709

Аудио #1
Идентификатор : 2
Формат : AC-3
Формат/Информация : Audio Coding 3
Коммерческое название : Dolby Digital
Идентификатор кодека : A_AC3
Продолжительность : 2 ч. 32 м.
Вид битрейта : Постоянный
Битрейт : 640 Кбит/сек
Каналы : 6 каналов
ChannelLayout : L R C LFE Ls Rs
Частота : 48,0 КГц
Частота кадров : 31,250 кадров/сек (1536 SPF)
Метод сжатия : С потерями
Размер потока : 700 Мбайт (4%)
Заголовок : Honey&Haseena
Язык : Russian
ServiceKind/String : Complete Main
Default : Да
Forced : Нет

Аудио #2
Идентификатор : 3
Формат : AC-3
Формат/Информация : Audio Coding 3
Коммерческое название : Dolby Digital
Идентификатор кодека : A_AC3
Продолжительность : 2 ч. 32 м.
Вид битрейта : Постоянный
Битрейт : 192 Кбит/сек
Каналы : 2 канала
ChannelLayout : L R
Частота : 48,0 КГц
Частота кадров : 31,250 кадров/сек (1536 SPF)
Метод сжатия : С потерями
Размер потока : 210 Мбайт (1%)
Заголовок : OnisFilms
Язык : Russian
ServiceKind/String : Complete Main
Default : Нет
Forced : Нет

Аудио #3
Идентификатор : 4
Формат : AC-3
Формат/Информация : Audio Coding 3
Коммерческое название : Dolby Digital
Идентификатор кодека : A_AC3
Продолжительность : 2 ч. 32 м.
Вид битрейта : Постоянный
Битрейт : 640 Кбит/сек
Каналы : 6 каналов
ChannelLayout : L R C LFE Ls Rs
Частота : 48,0 КГц
Частота кадров : 31,250 кадров/сек (1536 SPF)
Метод сжатия : С потерями
Размер потока : 700 Мбайт (4%)
Язык : Hindi
ServiceKind/String : Complete Main
Default : Нет
Forced : Нет

Аудио #4
Идентификатор : 5
Формат : AC-3
Формат/Информация : Audio Coding 3
Коммерческое название : Dolby Digital
Идентификатор кодека : A_AC3
Продолжительность : 2 ч. 32 м.
Вид битрейта : Постоянный
Битрейт : 640 Кбит/сек
Каналы : 6 каналов
ChannelLayout : L R C LFE Ls Rs
Частота : 48,0 КГц
Частота кадров : 31,250 кадров/сек (1536 SPF)
Метод сжатия : С потерями
Размер потока : 700 Мбайт (4%)
Язык : Tamil
ServiceKind/String : Complete Main
Default : Нет
Forced : Нет

Аудио #5
Идентификатор : 6
Формат : AC-3
Формат/Информация : Audio Coding 3
Коммерческое название : Dolby Digital
Идентификатор кодека : A_AC3
Продолжительность : 2 ч. 32 м.
Вид битрейта : Постоянный
Битрейт : 640 Кбит/сек
Каналы : 6 каналов
ChannelLayout : L R C LFE Ls Rs
Частота : 48,0 КГц
Частота кадров : 31,250 кадров/сек (1536 SPF)
Метод сжатия : С потерями
Размер потока : 700 Мбайт (4%)
Язык : Telugu
ServiceKind/String : Complete Main
Default : Нет
Forced : Нет

Текст #1
Идентификатор : 7
Формат : UTF-8
Идентификатор кодека : S_TEXT/UTF8
Идентификатор кодека/Информация : UTF-8 Plain Text
Продолжительность : 32 м. 39 с.
Битрейт : 20 бит/сек
ElementCount : 89
Размер потока : 4,87 Кбайт (0%)
Заголовок : На песни - Honey&Haseena
Язык : Russian
Default : Да
Forced : Нет

Текст #2
Идентификатор : 8
Формат : PGS
Режим смешивания : zlib
Идентификатор кодека : S_HDMV/PGS
Идентификатор кодека/Информация : Picture based subtitle format used on BDs/HD-DVDs
Продолжительность : 2 ч. 26 м.
Битрейт : 19,7 Кбит/сек
ElementCount : 2534
Размер потока : 20,6 Мбайт (0%)
Язык : English
Default : Нет
Forced : Нет

Меню
00:00:00.000 : en:Chapter 01
00:01:10.875 : en:Chapter 02
00:04:48.000 : en:Chapter 03
00:06:49.000 : en:Chapter 04
00:08:17.500 : en:Chapter 05
00:14:41.792 : en:Chapter 06
00:21:09.000 : en:Chapter 07
00:32:10.000 : en:Chapter 08
00:39:54.375 : en:Chapter 09
00:43:56.458 : en:Chapter 10
00:50:33.583 : en:Chapter 11
00:56:24.042 : en:Chapter 12
01:07:31.375 : en:Chapter 13
01:09:44.000 : en:Chapter 14
01:13:18.792 : en:Chapter 15
01:23:34.667 : en:Chapter 16
01:33:05.583 : en:Chapter 17
01:46:20.875 : en:Chapter 18
01:54:35.125 : en:Chapter 19
02:05:24.167 : en:Chapter 20
02:13:13.875 : en:Chapter 21
02:24:30.792 : en:Chapter 22
02:28:53.875 : en:Chapter 23
скриншот  скриншот  скриншот  
piratbit.xyz



Скачать Бой через торрент https://i111.fastpic.ru/big/2020/0129/ef/985f312a76fabfc14ed397db470dc6ef.jpg Скачать фильм Бой через торрент бесплантно в хорошем качестве Описание: Сотрудник спецслужб получает задание обезвредить бывшего коллегу и собственного наставника, который внезапно убил нескольких ... 9.8 10 5
Торрент: Зарегистрирован [2020-01-29 16:07] · скачан: 24 раз
Статус: √ проверено
Размер: 15.26 GB
Как cкачать? Как скачать Бой через торрент | qTorrent

% Раздел Тема Автор DL S | L
Фильмы до 2000 г. [ 1.46 GB ] Мужество в бою / Courage Under Fire [1996 BDRip] [DVO] killermax2013 Скачать
1 | 0
Action FPS (1st Person) [ 1.31 GB ] Prince of Persia: Warrior Within / Принц Персии: Схватка с судьбой [RepackRUАкелла] от R.G.Repacker`s BaRSSS Скачать
1 | 0
Зарубежные сериалы [ 12.92 GB ] Бойтесь ходячих мертвецов / Fear the Walking Dead / Сезон: 3 / Серии 1-16 из 16 [2017 WEB-DLRip-AVC WEBRip-AVC] MVO [BaibaKo] GEKADOL Скачать
2 | 0
Видео для КПК и Смартфонов [ 1.32 GB ] Бойтесь ходячих мертвецов / Fear the Walking Dead / Сезон: 1 / Серии: 1-6 из 6 [2015 HDTVRip][MP4 480x] MVO AMC Ворон Скачать
1 | 0
Порно фильмы HD [ 1.52 GB ] Бойся: Дом Траха Nacho / Nacho''s Fucking Warehouse [2016 Gonzo Hardcore DVDRip Оригинальный] DJASFUL Скачать
1 | 0
Гонзо [ 8.64 GB ] БОЙСЯ: ДОМ ТРАХА / NACHOS FUCKING WAREHOUSE [2016 Gonzo Hardcore WEB-DL HD 1080p Оригинальный] DJASFUL Скачать
1 | 0
Фильмы [HD 720p, 1080p] (Хороший звук DUB, MVO) [ 4.37 GB ] Мужество в бою / Courage Under Fire [1996 военный BDRip 720p от Leonardo] MVO Ворон Скачать
1 | 0

28-11-2019 20:33  

Отключить всю рекламу на сайте

30-01-2020 08:14 Бой Скачать торрент  

Бой посуду...я плачу!... ...очередной шадэвр индустрии... ...традиционно с танцами и гипермордобоем...piratbit.xyz



    Дорогой пользователь! Огромная просьба, поблагодарите релизера, оцените раздачу и оставьте свои комментарий, если Вы скачали Бой через торрент бесплатно! Внесите свою лепту в развитие PiratBit!
    Комментировать посты могут только пользователи прошедшие не сложную регистрацию
    Показать сообщения:    

    Бой через торрент
    Скачать бесплатно Бой
    Бой скачать торрент
    Бой смотреть онлайн
    Cкачать фильм Бой бесплатно
    Бой скачать торрент в хорошем качестве
    Бой смотреть онлайн бесплатно в хорошем качестве


    Вы не можете начинать темы
    Вы не можете отвечать на сообщения
    Вы не можете редактировать свои сообщения
    Вы не можете удалять свои сообщения
    Вы не можете голосовать в опросах
    Вы не можете прикреплять файлы к сообщениям
    Вы можете скачивать файлы