Ссылка на приватное зеркало всего за 1$. Внимание количество ограничено!!!

iTunes

1+1

iTunes

мы

MV0

1

WEB-DLRip

Джокер

Пифагор

Ведьмак / The Witcher сериал

iTunes

ПШазам

iTunes

Оно 2

iTunes

30
pack

Вам бонус

ВАЖНО

!!Акция!!

Alien_RageХит недели

RePack

Resident Evil 21

ИГРА 18+

pack

RePack

jed

!!Акция!!

Alien_Rage

RePack

fifa19

RePack

Assassins Creed: Odyssey

RePack

NEED FOR SPEED™ PAYBACK

4 сезон

9 сезон

Бесстыжие 9 сезон

Все сериалы

все сериалы на PB.wtf

RePack

FAR CRY 5
  

Полицейский с Рублевки. Новогодний беспредел 2 (Илья Куликов) [2019, комедия, приключения, WEB-DL 720p] piratbit.xyz

Полицейский с Рублевки. Новогодний беспредел 2 через торрент piratbit.xyz

Раздают: 91 [ 1 MB/s ] Качают: 2 [ 0 KB/s ]
Размер: 1.8 GB | Добавлен: 12 д. назад | Торрент скачан:811 раз
Скачать  

18-12-2019 04:16 Полицейский с Рублевки. Новогодний беспредел 2 Скачать торрент  

Полицейский с Рублевки. Новогодний беспредел 2
Год выпуска: 2019
Страна: Россия
Жанр: комедия, приключения
Продолжительность: 01:20:55
Перевод: Не требуется
Субтитры: отсутствуют

Режиссер: Илья Куликов



В ролях: Сергей Бурунов, Роман Попов, София Каштанова, Рина Гришина, Светлана Суханова, Александр Дерепко, Сергей Штатнов, Ростислав Гулбис, Ирина Вилкова, Александра Бортич

Описание: Близится новый год, и сотрудники отдела полиции Барвихи планируют праздновать его за городом в тёплой компании старых друзей и коллег. Но непредвиденные обстоятельства в лице преступников, ограбивших крупное ювелирное предприятие, ставят праздник под угрозу. Смогут ли рублёвские полицейские вернуть украденные драгоценные камни стоимостью миллионы долларов и спасти свой праздник до того, как часы пробьют полночь?

Качество: WEB-DL 720p
Формат: MKV

Видео: 1280х528 (2,40:1), 25 fps, AVC MPEG-4 (x264), High@L4.1 2924 kbps avg, 0.173 bit/pixel
Аудио: 48 kHz, AC3, 2 ch, 192 kbps avg
скриншот  скриншот  скриншот  скриншот  

Общее
Уникальный идентификатор : 241420180184004580812444756143602248336 (0xB59FD5DE0EA33901A6961028C6C5AA90)
Полное имя : D:\Politseyskiy.s.Rublovki.Novogodniy.bespredel-2.2019.WEB-DL.(720p).ExKinoRay.mkv
Формат : Matroska
Версия формата : Version 4 / Version 2
Размер файла : 1,80 Гбайт
Продолжительность : 1 ч. 20 м.
Режим общего битрейта : Переменный
Общий поток : 3179 Кбит/сек
Дата кодирования : UTC 2020-02-12 21:11:31
Программа кодирования : mkvmerge v6.9.1 ('Blue Panther') 64bit built on Apr 18 2014 18:23:38
Библиотека кодирования : libebml v1.3.0 + libmatroska v1.4.1

Видео
Идентификатор : 1
Формат : AVC
Формат/Информация : Advanced Video Codec
Профиль формата : High@L3.1
Параметр CABAC формата : Да
Параметр RefFrames формата : 1 кадр
Параметр GOP формата : M=1, N=50
Идентификатор кодека : V_MPEG4/ISO/AVC
Продолжительность : 1 ч. 20 м.
Вид битрейта : Переменный
Битрейт : 2924 Кбит/сек
Максимальный битрейт : 3000 Кбит/сек
Ширина : 1280 пикселей
Высота : 528 пикселей
Соотношение сторон : 2,40:1
Режим частоты кадров : Постоянный
Частота кадров : 25,000 кадров/сек
Цветовое пространство : YUV
Субдискретизация насыщенности : 4:2:0
Битовая глубина : 8 бит
Тип развёртки : Прогрессивная
Бит/(Пиксели*Кадры) : 0.173
Размер потока : 1,65 Гбайт (92%)
Default : Да
Forced : Нет

Аудио
Идентификатор : 2
Формат : AC-3
Формат/Информация : Audio Coding 3
Расширение режима : CM (complete main)
Параметр Endianness формата : Big
Идентификатор кодека : A_AC3
Продолжительность : 1 ч. 20 м.
Вид битрейта : Постоянный
Битрейт : 192 Кбит/сек
Каналы : 2 канала
Расположение каналов : Front: L R
Частота : 48,0 КГц
Частота кадров : 31,250 кадров/сек (1536 spf)
Метод сжатия : С потерями
Размер потока : 111 Мбайт (6%)
Язык : Russian
Default : Да
Forced : Нет

piratbit.xyz



Скачать Полицейский с Рублевки. Новогодний беспредел 2 через торрент https://img16.lostpic.net/2020/02/12/fd7d6fca93b47eae066d92cb99238155.th.jpg Скачать фильм Полицейский с Рублевки. Новогодний беспредел 2 через торрент бесплантно в хорошем качестве Описание: Близится новый год, и сотрудники отдела полиции Барвихи планируют праздновать его за городом в тёплой компании старых друзей и ... 8.9 10 46
Info! Золотая раздача, скачанное не засчитывается.
Торрент: Зарегистрирован [2020-02-13 01:40] · скачан: 811 раз
Статус: √ проверено
Размер: 1.8 GB
Как cкачать? Как скачать Полицейский с Рублевки. Новогодний беспредел 2 через торрент | qTorrent

% Раздел Тема Автор DL S | L
Наши новые фильмы 2018-2019 [ 1.37 GB ] Полицейский с Рублевки. Новогодний беспредел 2 [2019 WEB-DLRip] bober100 Скачать
110 | 1
Наши новые фильмы 2018-2019 [ 1.24 GB ] Полицейский с Рублевки. Новогодний беспредел 2 [2019 WEB-DLRip-AVC] bober100 Скачать
71 | 1

28-11-2019 20:33  

Отключить всю рекламу на сайте

    Дорогой пользователь! Огромная просьба, поблагодарите релизера, оцените раздачу и оставьте свои комментарий, если Вы скачали Полицейский с Рублевки. Новогодний беспредел 2 через торрент бесплатно! Внесите свою лепту в развитие PiratBit!
    Комментировать посты могут только пользователи прошедшие не сложную регистрацию
    Показать сообщения:    

    Полицейский с Рублевки. Новогодний беспредел 2 через торрент
    Скачать бесплатно Полицейский с Рублевки. Новогодний беспредел 2
    Полицейский с Рублевки. Новогодний беспредел 2 скачать торрент
    Полицейский с Рублевки. Новогодний беспредел 2 смотреть онлайн
    Cкачать фильм Полицейский с Рублевки. Новогодний беспредел 2 бесплатно
    Полицейский с Рублевки. Новогодний беспредел 2 скачать торрент в хорошем качестве
    Полицейский с Рублевки. Новогодний беспредел 2 смотреть онлайн бесплатно в хорошем качестве


    Вы не можете начинать темы
    Вы не можете отвечать на сообщения
    Вы не можете редактировать свои сообщения
    Вы не можете удалять свои сообщения
    Вы не можете голосовать в опросах
    Вы не можете прикреплять файлы к сообщениям
    Вы можете скачивать файлы