Ссылка на приватное зеркало всего за 1$. Внимание количество ограничено!!!


iTunes

1+1

iTunes

мы

WEB-DL

1

iTunes

Чернобыль

iTunes

Ральф против интернета

Лицензия

ПШазам

Лицензия

Оно 2

WEB-DL

30
pack

Вам бонус

ВАЖНО

!!Акция!!

Alien_RageХит недели

RePack

Resident Evil 21

ИГРА 18+

pack

RePack

jed

!!Акция!!

Alien_Rage

RePack

fifa19

RePack

Assassins Creed: Odyssey

RePack

NEED FOR SPEED™ PAYBACK

4 сезон

9 сезон

Бесстыжие 9 сезон

Все сериалы

все сериалы на PB.wtf

RePack

FAR CRY 5
Ребята, катастрофически не хватает 1900р. для оплаты серверов за Октябрь (всвязи с блокировками трафик упал в 3 раза), 1-2р., выручайте.
  

Рэмбо: Последняя кровь / Rambo: Last Blood (Адриан Грюнберг) [2019, боевик, триллер, приключения, вестерн, WEB-DL 1080p] DUB [iTunes] piratbit.xyz

Рэмбо: Последняя кровь через торрент piratbit.xyz

Раздают: 79 [ 684 KB/s ]
Размер: 3.49 GB | Добавлен: 12 д. назад | Торрент скачан:707 раз
Скачать  

02-12-2019 19:57 Рэмбо: Последняя кровь Скачать торрент  

Рэмбо: Последняя кровь / Rambo: Last Blood
Год выпуска: 2019
Страна: США
Жанр: боевик, триллер, приключения, вестерн
Продолжительность: 01:40:30
Перевод: Дублированный | iTunes
Субтитры: отсутствуют

Режиссер: Адриан Грюнберг

rating

В ролях: Сильвестр Сталлоне, Пас Вега, Ивет Монреаль, Луис Мэндилор, Оскар Хаэнада, Шила Шах, Серхио Перис-Менчета, Джессика Мэдсен, Хоакин Косио, Адриана Барраса

Описание: Он хранил секреты всю жизнь, но пришло время взглянуть в глаза прошлому. В последний раз собраться и стать безжалостной машиной для убийства. Рэмбо снова встанет на смертельно опасный путь - путь мести, который ему придется пройти до конца.

Качество: WEB-DL 1080p
Формат: MKV

Видео: MPEG-4 AVC, 4489 Кбит/с, 1912x796
Аудио: Русский (AC3, 6 ch, 384 Кбит/с)
скриншот  скриншот  скриншот  скриншот  

General
Unique ID : 237089519372768017198275564009334524466 (0xB25DC7CDEEDD2B9488AF38AEC93C4A32)
Complete name : RAMBO_LAST_BLOOD_2019_WEB-DL_1080p-BLUEBIRD.mkv
Format : Matroska
Format version : Version 4
File size : 3.49 GiB
Duration : 1 h 40 min
Overall bit rate : 4 972 kb/s
Movie name : RAMBO_LAST_BLOOD_2019_WEB-DL_1080p-BLUEBIRD
Encoded date : UTC 2019-12-02 19:10:11
Writing application : mkvmerge v6.9.1 ('Blue Panther') 32bit built on Apr 18 2014 18:15:44
Writing library : libebml v1.3.0 + libmatroska v1.4.1
Cover : Yes
Attachments : cover.png

Video
ID : 1
Format : AVC
Format/Info : Advanced Video Codec
Format profile : High@L4
Format settings : CABAC / 5 Ref Frames
Format settings, CABAC : Yes
Format settings, Reference frames : 5 frames
Codec ID : V_MPEG4/ISO/AVC
Duration : 1 h 40 min
Bit rate : 4 489 kb/s
Width : 1 912 pixels
Height : 796 pixels
Display aspect ratio : 2.40:1
Frame rate mode : Constant
Frame rate : 23.976 (24000/1001) FPS
Color space : YUV
Chroma subsampling : 4:2:0
Bit depth : 8 bits
Scan type : Progressive
Bits/(Pixel*Frame) : 0.123
Stream size : 3.15 GiB (90%)
Title : RAMBO_LAST_BLOOD_2019_WEB-DL_1080p-BLUEBIRD
Language : English
Default : Yes
Forced : No
Color range : Limited
Color primaries : BT.709
Transfer characteristics : BT.709
Matrix coefficients : BT.709

Audio
ID : 2
Format : AC-3
Format/Info : Audio Coding 3
Commercial name : Dolby Digital
Codec ID : A_AC3
Duration : 1 h 40 min
Bit rate mode : Constant
Bit rate : 384 kb/s
Channel(s) : 6 channels
Channel layout : L R C LFE Ls Rs
Sampling rate : 48.0 kHz
Frame rate : 31.250 FPS (1536 SPF)
Bit depth : 16 bits
Compression mode : Lossy
Stream size : 276 MiB (8%)
Title : [DUB] DD 5.1 @ 384 kbps (iTunes)
Language : Russian
Service kind : Complete Main
Default : Yes
Forced : No

Menu
00:00:00.000 : en:1
00:03:35.000 : en:2
00:11:29.000 : en:3
00:21:09.000 : en:4
00:30:02.000 : en:5
00:40:52.000 : en:6
00:53:04.000 : en:7
01:04:49.000 : en:8
01:14:38.000 : en:9
01:25:35.000 : en:10
01:30:39.000 : en:11

piratbit.xyz



Скачать Рэмбо: Последняя кровь через торрент https://c.radikal.ru/c25/1912/c6/4bcd6672e958.png Скачать фильм Рэмбо: Последняя кровь через торрент бесплантно в хорошем качестве Описание: Он хранил секреты всю жизнь, но пришло время взглянуть в глаза прошлому. В последний раз собраться и стать безжалостной машиной ... 10 10 30
Info! Золотая раздача, скачанное не засчитывается.
Торрент: Зарегистрирован [2019-12-02 19:57] · скачан: 707 раз
Статус: √ проверено
Размер: 3.49 GB
Как cкачать? Как скачать Рэмбо: Последняя кровь через торрент | qTorrent

% Раздел Тема Автор DL S | L
Фильмы [HD 720p, 1080p] (Хороший звук DUB, MVO) [ 8.97 GB ] Рэмбо: Последняя кровь / Rambo: Last Blood [2019 BDRip 1080p] [Театральная версия] bober100 Скачать
52 | 3
Ultra HD (UHD: 2K, 4K, 8K) — видео сверхвысокой чёткости [ 40.24 GB ] Рэмбо: Последняя кровь / Rambo: Last Blood [2019 UHD BDRemux 2160p] [Dolby Vision] sheker187 Скачать
2 | 2
Фильмы [HD 720p, 1080p] (Хороший звук DUB, MVO) [ 4.01 GB ] Рэмбо: Последняя кровь / Rambo: Last Blood [2019 BDRip 720p] [Театральная версия] bober100 Скачать
16 | 3
Фильмы 2019 [DVDrip, WEB-DLRip, HDrip] (DUB, MVO) [ 1.4 GB ] Рэмбо: Последняя кровь / Rambo: Last Blood [2019 HDRip-AVC] | Расширенная версия / Extended Cut - ExKinoRay Enigma2010 Скачать
456 | 25
Фильмы 2019 [DVDrip, WEB-DLRip, HDrip] (DUB, MVO) [ 1.46 GB ] Рэмбо: Последняя кровь / Rambo: Last Blood [2019 BDRip] [Театральная версия] bober100 Скачать
25 | 1
Фильмы (Blu-ray, BD-Remux, HDDVD) [ 24.06 GB ] Рэмбо: Последняя кровь / Rambo: Last Blood [2019 BD Remux 1080p] [Театральная версия] bober100 Скачать
46 | 11
Ultra HD (UHD: 2K, 4K, 8K) — видео сверхвысокой чёткости [ 35.57 GB ] Рэмбо: Последняя кровь / Rambo: Last Blood [2019 UHD BDRemux 2160p ] [Театральная версия] bober100 Скачать
12 | 3

28-11-2019 20:33  

Отключить всю рекламу на сайте

11-12-2019 19:00 Рэмбо: Последняя кровь Скачать торрент  

Занудный фильмец. Рэмбо уже не торт... piratbit.xyz



    Дорогой пользователь! Огромная просьба, поблагодарите релизера, оцените раздачу и оставьте свои комментарий, если Вы скачали Рэмбо: Последняя кровь через торрент бесплатно! Внесите свою лепту в развитие PiratBit!
    Комментировать посты могут только пользователи прошедшие не сложную регистрацию
    Показать сообщения:    

    Рэмбо: Последняя кровь через торрент
    Скачать бесплатно Рэмбо: Последняя кровь
    Рэмбо: Последняя кровь скачать торрент
    Рэмбо: Последняя кровь смотреть онлайн
    Cкачать фильм Рэмбо: Последняя кровь бесплатно
    Рэмбо: Последняя кровь скачать торрент в хорошем качестве
    Рэмбо: Последняя кровь смотреть онлайн бесплатно в хорошем качестве


    Вы не можете начинать темы
    Вы не можете отвечать на сообщения
    Вы не можете редактировать свои сообщения
    Вы не можете удалять свои сообщения
    Вы не можете голосовать в опросах
    Вы не можете прикреплять файлы к сообщениям
    Вы можете скачивать файлы