Ссылка на приватное зеркало всего за 1$. Внимание количество ограничено!!!


iTunes

1+1

iTunes

мы

WEB-DL

1

iTunes

Чернобыль

iTunes

Ральф против интернета

Лицензия

ПШазам

Лицензия

Оно 2

WEB-DL

30
pack

Вам бонус

ВАЖНО

!!Акция!!

Alien_RageХит недели

RePack

Resident Evil 21

ИГРА 18+

pack

RePack

jed

!!Акция!!

Alien_Rage

RePack

fifa19

RePack

Assassins Creed: Odyssey

RePack

NEED FOR SPEED™ PAYBACK

4 сезон

9 сезон

Бесстыжие 9 сезон

Все сериалы

все сериалы на PB.wtf

RePack

FAR CRY 5
Ребята, катастрофически не хватает 1900р. для оплаты серверов за Октябрь (всвязи с блокировками трафик упал в 3 раза), 1-2р., выручайте.
  

Отрыв (Тигран Саакян) [2019, Триллер, BDRip 1080p] [GER Transfer / Лицензия] piratbit.xyz

Отрыв через торрент piratbit.xyz

Раздают: 4 [ 242 KB/s ]
Размер: 6.66 GB | Добавлен: 14 д. назад | Торрент скачан:57 раз
Скачать  

01-12-2019 12:37 Отрыв Скачать торрент  

Отрыв Год выпуска: 2019
Страна: Россия
Студия: Аттракцион, Кинокомпания CTB
Жанр: Триллер
Продолжительность: 01:25:08
Перевод: Не требуется | Лицензия BD GER
Субтитры: отсутствуют

Режиссер: Тигран Саакян

rating

В ролях: Ирина Антоненко, Андрей Назимов, Денис Косяков, Ингрид Олеринская, Михаил Филиппов, Сергей Тодоров, Владимир Гусев, Елена Ветрова, Виктория Пятакина, Ангелина Пиковская

Описание: Компания друзей поднимается в горы, чтобы незабываемо встретить новогоднюю ночь на вершине горы. Ребята уже предвкушают, как под бой курантов и взрывы салютов они весело съедут вниз. Но приключение оборачивается настоящим кошмаром, когда в самый разгар праздника хлипкий вагончик, привёзший их ввысь, застревает над пропастью.

Качество: BDRip 1080p | GER Transfer
Формат: MKV

Видео: 1920x720 at 24 fps, AVC at 10600 kbps avg, 0.319 bit/pixel
Аудио: 48 kHz, AC3 Dolby Digital, 3/2 (L,C,R,l,r) + LFE ch, ~640 kbps
скриншот  скриншот  скриншот  скриншот  

Otryv.2018.BDRip.1080p.mkv
Формат : Matroska
Версия формата : Version 4
Размер файла : 6,66 Гбайт
Продолжительность : 1 ч. 25 м.
Общий поток : 11,2 Мбит/сек
Дата кодирования : UTC 2019-12-01 15:48:26
Программа кодирования : mkvmerge v40.0.0 ('Old Town Road + Pony') 64-bit
Библиотека кодирования : libebml v1.3.9 + libmatroska v1.5.2

Видео
Идентификатор : 1
Формат : AVC
Формат/Информация : Advanced Video Codec
Профиль формата : High@L4.1
Настройки формата : CABAC / 5 Ref Frames
Параметр CABAC формата : Да
Параметр RefFrames формата : 5 кадров
Идентификатор кодека : V_MPEG4/ISO/AVC
Продолжительность : 1 ч. 25 м.
Битрейт : 10,6 Мбит/сек
Ширина : 1920 пикселей
Высота : 720 пикселей
Соотношение сторон : 2,667
Режим частоты кадров : Постоянный
Частота кадров : 24,000 кадра/сек
Цветовое пространство : YUV
Субдискретизация насыщенности : 4:2:0
Битовая глубина : 8 бит
Тип развёртки : Прогрессивная
Бит/(Пиксели*Кадры) : 0.319
Размер потока : 6,28 Гбайт (94%)
Библиотека кодирования : x264 core 152 r2851 ba24899
Настройки программы : cabac=1 / ref=5 / deblock=1:-3:-3 / analyse=0x3:0x133 / me=umh / subme=11 / psy=1 / psy_rd=1.00:0.05 / mixed_ref=1 / me_range=48 / chroma_me=1 / trellis=2 / 8x8dct=1 / cqm=0 / deadzone=21,11 / fast_pskip=0 / chroma_qp_offset=-3 / threads=22 / lookahead_threads=5 / sliced_threads=0 / nr=0 / decimate=0 / interlaced=0 / bluray_compat=0 / constrained_intra=0 / bframes=10 / b_pyramid=2 / b_adapt=2 / b_bias=0 / direct=3 / weightb=1 / open_gop=0 / weightp=2 / keyint=240 / keyint_min=24 / scenecut=40 / intra_refresh=0 / rc_lookahead=40 / rc=2pass / mbtree=0 / bitrate=10583 / ratetol=1.0 / qcomp=0.60 / qpmin=0 / qpmax=69 / qpstep=4 / cplxblur=20.0 / qblur=0.5 / vbv_maxrate=50000 / vbv_bufsize=62500 / nal_hrd=none / filler=0 / ip_ratio=1.40 / pb_ratio=1.30 / aq=3:0.80
Язык : English
Default : Да
Forced : Нет

Аудио
Идентификатор : 2
Формат : AC-3
Формат/Информация : Audio Coding 3
Коммерческое название : Dolby Digital
Идентификатор кодека : A_AC3
Продолжительность : 1 ч. 25 м.
Вид битрейта : Постоянный
Битрейт : 640 Кбит/сек
Каналы : 6 каналов
ChannelLayout : L R C LFE Ls Rs
Частота : 48,0 КГц
Частота кадров : 31,250 кадров/сек (1536 SPF)
Метод сжатия : С потерями
Размер потока : 390 Мбайт (6%)
Заголовок : Lic
Язык : Russian
ServiceKind/String : Complete Main
Default : Да
Forced : Нет

Меню
00:00:00.000 : en:00:00:00.000
00:01:38.250 : en:00:01:38.250
00:05:00.916 : en:00:05:00.916
00:09:53.250 : en:00:09:53.250
00:15:23.083 : en:00:15:23.083
00:19:37.958 : en:00:19:37.958
00:26:13.541 : en:00:26:13.541
00:30:43.041 : en:00:30:43.041
00:36:58.791 : en:00:36:58.791
00:41:22.916 : en:00:41:22.916
00:47:39.458 : en:00:47:39.458
00:55:14.625 : en:00:55:14.625
01:02:41.166 : en:01:02:41.166
01:08:21.500 : en:01:08:21.500
01:14:41.791 : en:01:14:41.791
01:20:32.875 : en:01:20:32.875

piratbit.xyz



Скачать Отрыв через торрент https://b.radikal.ru/b24/1912/2f/f6581d8fd3b7.png Скачать фильм Отрыв через торрент бесплантно в хорошем качестве Описание: Компания друзей поднимается в горы, чтобы незабываемо встретить новогоднюю ночь на вершине горы. Ребята уже предвкушают, как под ... 10 10 4
Торрент: Зарегистрирован [2019-12-01 16:05] · скачан: 57 раз
Статус: √ проверено
Размер: 6.66 GB
Как cкачать? Как скачать Отрыв через торрент | qTorrent

% Раздел Тема Автор DL S | L
Документальные фильмы и телепередачи [ 465 MB ] Легенды Крыма. Призраки катакомб. [2015 Документальный военный DVB Русский] кэп Скачать
1 | 0
Фильмы 2018 [DVDrip, WEB-DLRip, HDrip] (DUB, MVO) [ 1.37 GB ] Точка отрыва / Action Point [2018 HDRip] DUB [] bober100 Скачать
2 | 0
Фильмы (Blu-ray, BD-Remux, HDDVD) [ 21.13 GB ] Точка отрыва / Action Point [2018 BDRemux 1080p] DUB [] -Lexx- Скачать
1 | 0
Отечественная Поп музыка (сборники) (mp3) [ 737 MB ] VA - Русский новогодний отрыв 2017 / MP3 / 256 kbps / Поп oleg8 Скачать
1 | 0
Отечественная Поп музыка (сборники) (mp3) [ 676 MB ] VA - Хитовый отрыв 11 2017 / MP3 / 256 kbps / Поп bober100 Скачать
1 | 0
Отечественная Поп музыка (сборники) (mp3) [ 676 MB ] VA - Хитовый отрыв 10 2017 / MP3 / 256 kbps / Поп bober100 Скачать
1 | 0
Отечественная Поп музыка (сборники) (mp3) [ 679 MB ] VA - Хитовый отрыв 9 2017 / MP3 / 256 kbps / Поп bober100 Скачать
1 | 0

28-11-2019 20:33  

Отключить всю рекламу на сайте

    Дорогой пользователь! Огромная просьба, поблагодарите релизера, оцените раздачу и оставьте свои комментарий, если Вы скачали Отрыв через торрент бесплатно! Внесите свою лепту в развитие PiratBit!
    Комментировать посты могут только пользователи прошедшие не сложную регистрацию
    Показать сообщения:    

    Отрыв через торрент
    Скачать бесплатно Отрыв
    Отрыв скачать торрент
    Отрыв смотреть онлайн
    Cкачать фильм Отрыв бесплатно
    Отрыв скачать торрент в хорошем качестве
    Отрыв смотреть онлайн бесплатно в хорошем качестве


    Вы не можете начинать темы
    Вы не можете отвечать на сообщения
    Вы не можете редактировать свои сообщения
    Вы не можете удалять свои сообщения
    Вы не можете голосовать в опросах
    Вы не можете прикреплять файлы к сообщениям
    Вы можете скачивать файлы