новый адрес
Ссылка на приватное зеркало всего за 1$. Внимание количество ограничено!!!

iTunes

1+1

iTunes

мы

WEB-DL

1

iTunes

Чернобыль

iTunes

Ральф против интернета

Лицензия

ПШазам

Лицензия

Оно 2

Лицензия

30
pack

Вам бонус

ВАЖНО

!!Акция!!

Alien_RageХит недели

RePack

Resident Evil 21

ИГРА 18+

pack

RePack

jed

!!Акция!!

Alien_Rage

RePack

fifa19

RePack

Assassins Creed: Odyssey

RePack

NEED FOR SPEED™ PAYBACK

3 сезон

9 сезон

Бесстыжие 9 сезон

Все сериалы

все сериалы на PB.wtf

RePack

FAR CRY 5
Ребята, катастрофически не хватает 1900р. для оплаты серверов за Октябрь (всвязи с блокировками трафик упал в 3 раза), 1-2р., выручайте.
  

Aпгpeйд / Upgrаdе (Ли Уоннелл) [2018 г., фантастика, боевик, триллер, детектив, криминал, ..., BDRip - HEVC 1080p 10 bit 60 FPS, Дубляж Лицензия] piratbit.xyz

Aпгpeйд через торрент piratbit.xyz

Раздают: 8 [ 0 KB/s ]
Размер: 3.59 GB | Добавлен: 9 д. назад | Торрент скачан:68 раз
Скачать  

01-12-2019 08:29 Aпгpeйд Скачать торрент  

Aпгpeйд / UpgrаdеГод выпуска: 2018
Страна: Австралия
Жанр: фантастика, боевик, триллер, детектив, криминал, ...
Продолжительность: 100 мин. / 01:40
Перевод: Дубляж Лицензия
Тип релиза: Пиратка
Субтитры: Русские (Full)

Режиссер: Ли Уоннелл

Бюджет: $5 000 000
Премьера в мире: 10 марта 2018, ...

rating

В ролях: Логан Маршалл-Грин, Мелани Валльехо, Стив Даниелсен, Эбби Краден, Харрисон Гилбертсон, Бенедикт Харди, Ричард Коуторн, Кристофер Кирби, Ричард Анастасиос, Кенни Лоу

Описание: ближайшем будущем разнообразные технологии участвуют во всех аспектах человеческой жизни. Но в этом технологичном мире Грей — один из немногих людей, кто любит работать руками. Он восстанавливает и чинит старые автомобили. Однажды, возвращаясь от клиента, Грей с женой попадают в аварию, а после — в руки банды отморозков, в результате чего женщина погибает, а Грей оказывается парализованным ниже шеи. Тот самый богатый клиент предлагает несчастному поставить экспериментальный имплант Stem, который может полностью восстановить подвижность.

Качество: BDRip 1080p / 60 FPS
Формат: MKV
Видео: V_MPEGH/ISO/HEVC;1920x800 (2.40:1);4506 Kbps;59,940 fps;0,049 bpp
Аудио: русский;AC3;640 Kbps;CBR;6 ch

Релиз от: DD2D3
скриншот  скриншот  скриншот  скриншот  
General
Unique ID : 210698457979533968803641165319557113622 (0x9E830C04A58145259D3E8969932C6716)
Complete name : D:\Aпгpeйд - Upgrаdе (2018) BDRip - HEVC 1080p 10 bit 60 FPS.mkv
Format : Matroska
Format version : Version 4
File size : 3.59 GiB
Duration : 1 h 39 min
Overall bit rate : 5 150 kb/s
Movie name : Rip by DD2D3
Encoded date : UTC 2019-12-01 07:44:43
Writing application : mkvmerge v10.0.0 ('To Drown In You') 32bit
Writing library : libebml v1.3.4 + libmatroska v1.4.5
Attachments : poster

Video
ID : 1
Format : HEVC
Format/Info : High Efficiency Video Coding
Format profile : Main 10@L4.1@Main
Codec ID : V_MPEGH/ISO/HEVC
Duration : 1 h 39 min
Bit rate : 4 506 kb/s
Width : 1 920 pixels
Height : 800 pixels
Display aspect ratio : 2.40:1
Frame rate mode : Constant
Frame rate : 59.940 (60000/1001) FPS
Color space : YUV
Chroma subsampling : 4:2:0
Bit depth : 10 bits
Bits/(Pixel*Frame) : 0.049
Stream size : 3.14 GiB (87%)
Writing library : x265 2.3+33-0b7d54dbb71a87a0:[Windows][MSVC 1800][64 bit] 10bit: KG7x [x265.ru]
Encoding settings : cpuid=1173503 / frame-threads=2 / numa-pools=4 / wpp / no-pmode / no-pme / no-psnr / no-ssim / log-level=2 / input-csp=1 / input-res=1920x800 / interlace=0 / total-frames=359308 / level-idc=41 / high-tier=1 / uhd-bd=0 / ref=3 / no-allow-non-conformance / no-repeat-headers / annexb / no-aud / no-hrd / info / hash=0 / no-temporal-layers / open-gop / min-keyint=25 / keyint=250 / bframes=4 / b-adapt=2 / b-pyramid / bframe-bias=0 / rc-lookahead=20 / lookahead-slices=5 / scenecut=40 / no-intra-refresh / ctu=64 / min-cu-size=8 / no-rect / no-amp / max-tu-size=32 / tu-inter-depth=1 / tu-intra-depth=1 / limit-tu=0 / rdoq-level=0 / dynamic-rd=0.00 / no-ssim-rd / signhide / no-tskip / nr-intra=0 / nr-inter=0 / no-constrained-intra / strong-intra-smoothing / max-merge=2 / limit-refs=3 / no-limit-modes / me=1 / subme=2 / merange=57 / temporal-mvp / weightp / no-weightb / no-analyze-src-pics / deblock=0:0 / no-sao / no-sao-non-deblock / rd=3 / no-early-skip / no-rskip / no-fast-intra / no-tskip-fast / no-cu-lossless / no-b-intra / rdpenalty=0 / psy-rd=4.00 / psy-rdoq=0.00 / no-rd-refine / analysis-mode=0 / no-lossless / cbqpoffs=0 / crqpoffs=0 / rc=abr / bitrate=4500 / qcomp=0.60 / qpstep=1 / stats-write=0 / stats-read=2 / cplxblur=20.0 / qblur=0.5 / ipratio=1.10 / pbratio=1.00 / aq-mode=0 / aq-strength=0.00 / no-cutree / zone-count=0 / no-strict-cbr / qg-size=64 / rc-grain / qpmax=69 / qpmin=0 / sar=1 / overscan=0 / videoformat=5 / range=0 / colorprim=2 / transfer=2 / colormatrix=2 / chromaloc=0 / display-window=0 / max-cll=0,0 / min-luma=0 / max-luma=1023 / log2-max-poc-lsb=8 / vui-timing-info / vui-hrd-info / slices=1 / opt-qp-pps / opt-ref-list-length-pps / no-multi-pass-opt-rps / scenecut-bias=0.05 / no-opt-cu-delta-qp / no-aq-motion / no-hdr / no-hdr-opt / refine-level=5 / no-limit-sao
Default : Yes
Forced : No

Audio
ID : 2
Format : AC-3
Format/Info : Audio Coding 3
Commercial name : Dolby Digital
Codec ID : A_AC3
Duration : 1 h 39 min
Bit rate mode : Constant
Bit rate : 640 kb/s
Channel(s) : 6 channels
Channel layout : L R C LFE Ls Rs
Sampling rate : 48.0 kHz
Frame rate : 31.250 FPS (1536 SPF)
Bit depth : 16 bits
Compression mode : Lossy
Stream size : 457 MiB (12%)
Title : Dub [License]
Language : Russian
Service kind : Complete Main
Default : No
Forced : No

Text
ID : 3
Format : UTF-8
Codec ID : S_TEXT/UTF8
Codec ID/Info : UTF-8 Plain Text
Duration : 1 h 32 min
Bit rate : 88 b/s
Count of elements : 1290
Stream size : 59.6 KiB (0%)
Title : Full
Language : Russian
Default : No
Forced : No

Menu
00:00:00.000 : en:00:00:00.000
00:05:38.296 : en:00:05:38.296
00:09:04.919 : en:00:09:04.919
00:15:26.759 : en:00:15:26.759
00:18:42.704 : en:00:18:42.704
00:21:43.635 : en:00:21:43.635
00:28:37.382 : en:00:28:37.382
00:34:42.622 : en:00:34:42.622
00:41:17.057 : en:00:41:17.057
00:47:55.622 : en:00:47:55.622
00:51:14.529 : en:00:51:14.529
00:56:58.456 : en:00:56:58.456
01:01:34.565 : en:01:01:34.565
01:05:22.168 : en:01:05:22.168
01:09:10.938 : en:01:09:10.938
01:16:13.193 : en:01:16:13.193
01:20:17.103 : en:01:20:17.103
01:25:41.928 : en:01:25:41.928
01:31:45.249 : en:01:31:45.249
01:33:57.631 : en:01:33:57.631
piratbit.xyz



Скачать Aпгpeйд через торрент https://funkyimg.com/i/2Z9Yz.jpg Скачать фильм Aпгpeйд через торрент бесплантно в хорошем качестве Описание: ближайшем будущем разнообразные технологии участвуют во всех аспектах человеческой жизни. Но в этом технологичном мире Грей — ... 7.8 10 4
Торрент: Зарегистрирован [2019-12-01 08:29] · скачан: 68 раз
Статус: √ проверено
Размер: 3.59 GB
Как cкачать? Как скачать Aпгpeйд через торрент | qTorrent

% Раздел Тема Автор DL S | L
Фильмы 2018 [DVDrip, WEB-DLRip, HDrip] (DUB, MVO) [ 2.31 GB ] Aпгpeйд / Upgrаdе [2018 BDRip-AVC] MVO AVO [Чадов] - ExKinoRay Enigma2010 Скачать
38 | 2

28-11-2019 20:33  

Отключить всю рекламу на сайте

    Дорогой пользователь! Огромная просьба, поблагодарите релизера, оцените раздачу и оставьте свои комментарий, если Вы скачали Aпгpeйд через торрент бесплатно! Внесите свою лепту в развитие PiratBit!
    Комментировать посты могут только пользователи прошедшие не сложную регистрацию
    Показать сообщения:    

    Aпгpeйд через торрент
    Скачать бесплатно Aпгpeйд
    Aпгpeйд скачать торрент
    Aпгpeйд смотреть онлайн
    Cкачать фильм Aпгpeйд бесплатно
    Aпгpeйд скачать торрент в хорошем качестве
    Aпгpeйд смотреть онлайн бесплатно в хорошем качестве


    Вы не можете начинать темы
    Вы не можете отвечать на сообщения
    Вы не можете редактировать свои сообщения
    Вы не можете удалять свои сообщения
    Вы не можете голосовать в опросах
    Вы не можете прикреплять файлы к сообщениям
    Вы можете скачивать файлы