Ссылка на приватное зеркало всего за 1$. Внимание количество ограничено!!!


iTunes

1+1

iTunes

мы

WEB-DL

1

iTunes

Чернобыль

iTunes

Ральф против интернета

Лицензия

ПШазам

Лицензия

Оно 2

WEB-DL

30
pack

Вам бонус

ВАЖНО

!!Акция!!

Alien_RageХит недели

RePack

Resident Evil 21

ИГРА 18+

pack

RePack

jed

!!Акция!!

Alien_Rage

RePack

fifa19

RePack

Assassins Creed: Odyssey

RePack

NEED FOR SPEED™ PAYBACK

4 сезон

9 сезон

Бесстыжие 9 сезон

Все сериалы

все сериалы на PB.wtf

RePack

FAR CRY 5
Ребята, катастрофически не хватает 1900р. для оплаты серверов за Октябрь (всвязи с блокировками трафик упал в 3 раза), 1-2р., выручайте.
  

Маврин - 20 лет [2018 г., Heavy metal, BDRip-AVC] piratbit.xyz

Маврин - 20 лет через торрент piratbit.xyz

Размер: 3.05 GB | Добавлен: 15 д. назад | Торрент скачан:7 раз
Скачать  

29-11-2019 23:42 Маврин - 20 лет Скачать торрент  

Маврин - 20 лет
Год выпуска: 2018
Страна: Россия
Жанр: Heavy metal
Продолжительность: 03:18:54
Тип релиза: BDRip-AVC

Исполнитель: Сергей Маврин, Андрей Лефлер, Артем Стыров, Ольга Дзусова, Михаил Сидоренко, Валерий Кипелов

Описание: Это был действительно праздник – хотя в программу концерта входило немало тяжелых и эмоционально, и по музыке песен, общее впечатление, которое он оставил, можно описать одним емким словом «позитив». Хорошо все, что хорошо кончается, и когда после пустых клубов, бесконечных смен состава и множества других проблем главные герои этой истории собираются вместе в огромном зале и поют хором «Здесь лишних нет», нельзя не порадоваться за всех причастных как на сцене, так и у нее. Часто такие юбилеи оставляют, помимо позитива, еще и горьковатый привкус – вспоминаешь тех, кто ходил с тобой вместе в какой-нибудь «Ю-Ту» или, не к ночи будь она помянута, «Эстакаду», и кто потом затерялся на очередном «перекрестке судьбы». Но в этот раз такие мысли совершенно не возникали – Сергею, его согруппникам и гостям удалось по-настоящему увлечь зрителей ярким и насыщенным музыкальным представлением, какие случаются на российских площадках совсем нечасто.
01. Интро
02. Мое время
03. Дорога в рай
04. Поединок
05. Рок
06. Боль, что осталась от нас (дудук – Маргарян)
07. Выпьем еще
08. Вольная птица (вокал – Лефлер)
09. Откровение (вокал – Лефлер)
10. Воины (вокал – Лефлер)
11. Здесь и сейчас (вокал – Стыров)
12. Прорвемся (вокал – Стыров)
13. Пророк (вокал – Стыров, колесная лира – Гончаров)
14. Стрелы в небо (вокал – Дзусова, Стыров)
15. Заклинание (вокал – Дзусова, Стыров)
16. Северный огонь (вокал – Дзусова)
17. Утоли мои печали (инструментал, дудук – Маргарян)
18. Пока боги спят
19. Showtime
20. Heaven On Their Minds (Jesus Christ Superstar cover) (вокал – Сидоренко)
21. Свет дневной иссяк (второй вокал – Сидоренко)
22. Стая (вокал – Сидоренко)
23. Корабль-призрак (вокал – Сидоренко)
24. Castlevania (вокал – Кипелов)
25. Герой асфальта 2015 (вокал – Кипелов)
26. Рожденные жить
27. Город, стоящий у солнца

Бис:
28. Дай руку мне (все)
Качество: BDRip-AVC
Формат: MKV
Видео кодек: H.264
Аудио кодек: AC3
Видео: 1024x576, 16/9, 25.000 fps, 2000 Кбит/с
Аудио: AC3, 192 Кбит/сек, 48.0 КГц, 2 ch (L R)

Релиз: от
General
Unique ID : 207219087139594847438577128442681271494 (0x9BE4F1CA8F694908821962DA0A42A4C6)
Complete name : D:\Маврин\Mavrin-20.let.2018.x264.BDRip-Лумина.New-team.mkv
Format : Matroska
Format version : Version 2
File size : 3.05 GiB
Duration : 3 h 18 min
Overall bit rate : 2 194 kb/s
Encoded date : UTC 2019-11-28 16:15:25
Writing application : mkvmerge v6.1.0 ('Old Devil') built on Mar 4 2013 09:10:42
Writing library : libebml v1.3.0 + libmatroska v1.4.0

Video
ID : 1
Format : AVC
Format/Info : Advanced Video Codec
Format profile : High@L4.1
Format settings : CABAC / 11 Ref Frames
Format settings, CABAC : Yes
Format settings, ReFrames : 11 frames
Codec ID : V_MPEG4/ISO/AVC
Duration : 3 h 18 min
Bit rate : 2 000 kb/s
Width : 1 024 pixels
Height : 576 pixels
Display aspect ratio : 16:9
Frame rate mode : Constant
Frame rate : 25.000 FPS
Color space : YUV
Chroma subsampling : 4:2:0
Bit depth : 8 bits
Scan type : Progressive
Bits/(Pixel*Frame) : 0.136
Stream size : 2.72 GiB (89%)
Writing library : x264 core 130 r2273 b3065e6
Encoding settings : cabac=1 / ref=11 / deblock=1:3:3 / analyse=0x3:0x113 / me=umh / subme=11 / psy=1 / psy_rd=1.00:0.15 / mixed_ref=1 / me_range=48 / chroma_me=1 / trellis=2 / 8x8dct=1 / cqm=0 / deadzone=21,11 / fast_pskip=0 / chroma_qp_offset=-3 / threads=6 / lookahead_threads=1 / sliced_threads=0 / nr=0 / decimate=0 / interlaced=0 / bluray_compat=0 / constrained_intra=0 / bframes=11 / b_pyramid=2 / b_adapt=2 / b_bias=0 / direct=3 / weightb=1 / open_gop=1 / weightp=2 / keyint=240 / keyint_min=23 / scenecut=40 / intra_refresh=0 / rc=2pass / mbtree=0 / bitrate=2000 / ratetol=1.0 / qcomp=0.60 / qpmin=0 / qpmax=69 / qpstep=4 / cplxblur=20.0 / qblur=0.5 / ip_ratio=1.40 / pb_ratio=1.30 / aq=1:1.00
Default : Yes
Forced : No

Audio
ID : 2
Format : AC-3
Format/Info : Audio Coding 3
Codec ID : A_AC3
Duration : 3 h 18 min
Bit rate mode : Constant
Bit rate : 192 kb/s
Channel(s) : 2 channels
Channel positions : Front: L R
Sampling rate : 48.0 kHz
Frame rate : 31.250 FPS (1536 SPF)
Bit depth : 16 bits
Compression mode : Lossy
Stream size : 273 MiB (9%)
Service kind : Complete Main
Default : Yes
Forced : No

piratbit.xyz



Скачать Маврин - 20 лет через торрент https://b.radikal.ru/b27/1911/b0/a73e71e09579.jpg Скачать фильм Маврин - 20 лет [2018 г., Heavy metal, BDRip-AVC]через торрент бесплантно в хорошем качестве Описание: Это был действительно праздник – хотя в программу концерта входило немало тяжелых и эмоционально, и по музыке песен, общее ... 5 10 1
Info! Золотая раздача, скачанное не засчитывается.
Торрент: Зарегистрирован [2019-11-29 23:42] · скачан: 7 раз
Статус: √ проверено
Размер: 3.05 GB
Как cкачать? Как скачать Маврин - 20 лет через торрент | qTorrent

28-11-2019 20:33  

Отключить всю рекламу на сайте

    Дорогой пользователь! Огромная просьба, поблагодарите релизера, оцените раздачу и оставьте свои комментарий, если Вы скачали Маврин - 20 лет через торрент бесплатно! Внесите свою лепту в развитие PiratBit!
    Комментировать посты могут только пользователи прошедшие не сложную регистрацию
    Показать сообщения:    

    Маврин - 20 лет через торрент
    Скачать бесплатно Маврин - 20 лет
    Маврин - 20 лет скачать торрент
    Маврин - 20 лет смотреть онлайн
    Cкачать фильм Маврин - 20 лет бесплатно
    Маврин - 20 лет скачать торрент в хорошем качестве
    Маврин - 20 лет смотреть онлайн бесплатно в хорошем качестве


    Вы не можете начинать темы
    Вы не можете отвечать на сообщения
    Вы не можете редактировать свои сообщения
    Вы не можете удалять свои сообщения
    Вы не можете голосовать в опросах
    Вы не можете прикреплять файлы к сообщениям
    Вы можете скачивать файлы