новый адрес
Ссылка на приватное зеркало всего за 1$. Внимание количество ограничено!!!

iTunes

1+1

iTunes

мы

WEB-DL

1

iTunes

Чернобыль

iTunes

Ральф против интернета

Лицензия

ПШазам

Лицензия

Оно 2

Лицензия

30
pack

Вам бонус

ВАЖНО

!!Акция!!

Alien_RageХит недели

RePack

Resident Evil 21

ИГРА 18+

pack

RePack

jed

!!Акция!!

Alien_Rage

RePack

fifa19

RePack

Assassins Creed: Odyssey

RePack

NEED FOR SPEED™ PAYBACK

3 сезон

9 сезон

Бесстыжие 9 сезон

Все сериалы

все сериалы на PB.wtf

RePack

FAR CRY 5
Ребята, катастрофически не хватает 1900р. для оплаты серверов за Октябрь (всвязи с блокировками трафик упал в 3 раза), 1-2р., выручайте.
  

Король Лев / The Lion King (Джон Фавро) [2019, мультфильм, мюзикл, драма, приключения, семейный, BDRip-HEVC 1080p, (10 bit)] DUB [Лицензия] piratbit.xyz

Король Лев через торрент piratbit.xyz

Раздают: 17 [ 1 MB/s ]
Размер: 7.01 GB | Добавлен: 15 д. назад | Торрент скачан:125 раз
Скачать  

27-11-2019 01:01 Король Лев Скачать торрент  

Король Лев / The Lion King
Год выпуска: 2019
Страна: США
Жанр: мультфильм, мюзикл, драма, приключения, семейный
Продолжительность: 01:58:15
Перевод: Дублированный | Лицензия
Субтитры: Русские (Full, SDH), английские

Режиссер: Джон Фавро

rating

В ролях:

Джеймс Эрл Джонс (Mufasa, озвучка), Дональд Гловер (Simba, озвучка), Чиветель Эджиофор (Scar, озвучка), Джон Оливер (Zazu, озвучка), Джон Кани (Rafiki, озвучка), Элфри Вудард (Sarabi, озвучка), Джейдон Маккрэри (Young Simba, озвучка), Шахади Райт Джозеф (Young Nala, озвучка), Пенни Джонсон (Sarafina, озвучка), Кигэн-Майкл Ки (Kamari, озвучка), Эрик Андре (Azizi, озвучка), Флоренс Касумба (Shenzi, озвучка)
Описание: Действие фильма разворачивается в африканской саванне и повествует о молодом льве по имени Симба, который потерял своего отца Муфасу из-за своего злобного дяди Шрама и был изгнан из прайда в дальние края пустыни. Годы спустя он возвращается, чтобы вернуть себе трон.

Качество: BDRip-HEVC 1080p
Формат: MKV

Видео: HEVC, x.265, 10 bit, 1920x1080, 7201 Kbit/s, 23.976 fps
Аудио #01: 48 kHz, AC3, 5.1, 640 Kbps | Лицензия | RUS |
Аудио #02: 48 kHz, AC3, 5.1, 640 Kbps | Оригинал | ENG |
скриншот  скриншот  скриншот  скриншот  скриншот  

General
Unique ID : 251482100028402750375052628273509475927 (0xBD31B0D1345FF72A3C2CD4D469E8A657)
Complete name : F:Video111The.Lion.King.2019.Lic.BDRip.1080p.HEVC.10.bit.seleZen.mkv
Format : Matroska
Format version : Version 4
File size : 7.01 GiB
Duration : 1 h 58 min
Overall bit rate : 8 483 kb/s
Movie name : The Lion King 2019 from селезень
Encoded date : UTC 2019-11-26 22:57:17
Writing application : mkvmerge v40.0.0 ('Old Town Road + Pony') 64-bit
Writing library : libebml v1.3.9 + libmatroska v1.5.2

Video
ID : 1
Format : HEVC
Format/Info : High Efficiency Video Coding
Format profile : Main 10@L5@Main
Codec ID : V_MPEGH/ISO/HEVC
Duration : 1 h 58 min
Bit rate : 7 201 kb/s
Width : 1 920 pixels
Height : 1 080 pixels
Display aspect ratio : 16:9
Frame rate mode : Constant
Frame rate : 23.976 (24000/1001) FPS
Original frame rate : 23.976 (23976/1000) FPS
Color space : YUV
Chroma subsampling : 4:2:0
Bit depth : 10 bits
Bits/(Pixel*Frame) : 0.145
Stream size : 5.95 GiB (85%)
Title : CHD
Writing library : x265 3.1.2+1-76650bab70f9:[Windows][MSVC 1922][64 bit] 10bit
Encoding settings : cpuid=1111039 / frame-threads=5 / numa-pools=36,36 / wpp / no-pmode / no-pme / no-psnr / no-ssim / log-level=2 / input-csp=1 / input-res=1920x1080 / interlace=0 / total-frames=0 / level-idc=0 / high-tier=1 / uhd-bd=0 / ref=6 / no-allow-non-conformance / repeat-headers / annexb / no-aud / no-hrd / info / hash=0 / no-temporal-layers / no-open-gop / min-keyint=23 / keyint=250 / gop-lookahead=0 / bframes=8 / b-adapt=2 / b-pyramid / bframe-bias=0 / rc-lookahead=24 / lookahead-slices=6 / scenecut=40 / radl=0 / no-splice / no-intra-refresh / ctu=64 / min-cu-size=8 / no-rect / no-amp / max-tu-size=32 / tu-inter-depth=1 / tu-intra-depth=1 / limit-tu=0 / rdoq-level=0 / dynamic-rd=0.00 / no-ssim-rd / signhide / no-tskip / nr-intra=0 / nr-inter=0 / no-constrained-intra / no-strong-intra-smoothing / max-merge=3 / limit-refs=1 / no-limit-modes / me=2 / subme=7 / merange=48 / temporal-mvp / weightp / weightb / no-analyze-src-pics / deblock=0:0 / sao / no-sao-non-deblock / rd=4 / early-skip / rskip / no-fast-intra / no-tskip-fast / no-cu-lossless / b-intra / no-splitrd-skip / rdpenalty=0 / psy-rd=2.00 / psy-rdoq=0.00 / no-rd-refine / no-lossless / cbqpoffs=0 / crqpoffs=0 / rc=crf / crf=16.0 / qcomp=0.60 / qpstep=4 / stats-write=0 / stats-read=0 / ipratio=1.40 / pbratio=1.30 / aq-mode=3 / aq-strength=1.00 / cutree / zone-count=0 / no-strict-cbr / qg-size=32 / no-rc-grain / qpmax=69 / qpmin=0 / no-const-vbv / sar=0 / overscan=0 / videoformat=5 / range=0 / colorprim=2 / transfer=2 / colormatrix=2 / chromaloc=0 / display-window=0cll=0,0 / min-luma=0 / max-luma=1023 / log2-max-poc-lsb=8 / vui-timing-info / vui-hrd-info / slices=1 / no-opt-qp-pps / no-opt-ref-list-length-pps / no-multi-pass-opt-rps / scenecut-bias=0.05 / no-opt-cu-delta-qp / aq-motion / no-hdr / no-hdr-opt / no-dhdr10-opt / no-idr-recovery-sei / analysis-reuse-level=5 / scale-factor=0 / refine-intra=0 / refine-inter=0 / refine-mv=0 / refine-ctu-distortion=0 / no-limit-sao / ctu-info=0 / no-lowpass-dct / refine-analysis-type=0 / copy-pic=1 / max-ausize-factor=1.0 / no-dynamic-refine / no-single-sei / no-hevc-aq / no-svt / no-field / qp-adaptation-range=1.00
Language : English
Default : Yes
Forced : No

Audio #1
ID : 2
Format : AC-3
Format/Info : Audio Coding 3
Commercial name : Dolby Digital
Codec ID : A_AC3
Duration : 1 h 58 min
Bit rate mode : Constant
Bit rate : 640 kb/s
Channel(s) : 6 channels
Channel layout : L R C LFE Ls Rs
Sampling rate : 48.0 kHz
Frame rate : 31.250 FPS (1536 SPF)
Bit depth : 16 bits
Compression mode : Lossy
Stream size : 541 MiB (8%)
Title : Dub [License]
Language : Russian
Service kind : Complete Main
Default : Yes
Forced : Yes

Audio #2
ID : 3
Format : AC-3
Format/Info : Audio Coding 3
Commercial name : Dolby Digital
Codec ID : A_AC3
Duration : 1 h 58 min
Bit rate mode : Constant
Bit rate : 640 kb/s
Channel(s) : 6 channels
Channel layout : L R C LFE Ls Rs
Sampling rate : 48.0 kHz
Frame rate : 31.250 FPS (1536 SPF)
Bit depth : 16 bits
Compression mode : Lossy
Stream size : 541 MiB (8%)
Title : Original
Language : English
Service kind : Complete Main
Default : No
Forced : No

Text #1
ID : 4
Format : UTF-8
Codec ID : S_TEXT/UTF8
Codec ID/Info : UTF-8 Plain Text
Duration : 1 h 55 min
Bit rate : 68 b/s
Count of elements : 1371
Stream size : 58.1 KiB (0%)
Title : Full
Language : Russian
Default : No
Forced : No

Text #2
ID : 5
Format : UTF-8
Codec ID : S_TEXT/UTF8
Codec ID/Info : UTF-8 Plain Text
Duration : 1 h 47 min
Bit rate : 89 b/s
Count of elements : 1642
Stream size : 70.4 KiB (0%)
Title : SDH
Language : Russian
Default : No
Forced : No

Text #3
ID : 6
Format : UTF-8
Codec ID : S_TEXT/UTF8
Codec ID/Info : UTF-8 Plain Text
Duration : 1 h 46 min
Bit rate : 50 b/s
Count of elements : 1369
Stream size : 39.1 KiB (0%)
Title : Full
Language : English
Default : No
Forced : No

Menu
00:00:00.000 : en:"Circle Of Life/Nants' Ingonyama"
00:04:50.499 : en:"Life's Not Fair"
00:10:51.067 : en:"Everything The Light Touches"
00:17:47.692 : en:"I Just Can't Wait To Be King"
00:23:53.015 : en:Elephant Graveyard
00:30:00.132 : en:Under The Stars
00:33:05.066 : en:"Be Prepared"
00:37:09.310 : en:Stampede
00:43:42.912 : en:Scar Takes Over
00:50:47.336 : en:Timon And Pumbaa
00:55:02.716 : en:"Hakuna Matata"
00:59:48.460 : en:Scar's Kingdom
01:06:27.233 : en:"Line Of Indifference"
01:14:32.093 : en:"The Lion Sleeps Tonight"
01:18:26.410 : en:"Can You Feel The Love Tonight"
01:23:07.900 : en:"He Lives In You"
01:28:04.654 : en:"Spirit"
01:33:10.877 : en:Simba Confronts Scar
01:37:13.745 : en:Battle For Pride Rock
01:44:39.190 : en:The Rightful King
01:47:47.336 : en:End Credits/"Never Too Late"

piratbit.xyz



Скачать Король Лев через торрент https://img16.lostpic.net/2019/10/12/85da9c1ac8456cde85b1ee2accf75474.jpg Скачать фильм Король Лев через торрент бесплантно в хорошем качестве Описание: Действие фильма разворачивается в африканской саванне и повествует о молодом льве по имени Симба, который потерял своего отца ... 10 10 8
Info! Золотая раздача, скачанное не засчитывается.
Торрент: Зарегистрирован [2019-11-27 01:01] · скачан: 125 раз
Статус: √ проверено
Размер: 7.01 GB
Как cкачать? Как скачать Король Лев через торрент | qTorrent

% Раздел Тема Автор DL S | L
Иностранные мультфильмы [ 795 MB ] Король Лев / The Lion King [2019 мультфильм мюзикл HDRip] DUB [] bober100 Скачать
1 | 0
Ultra HD (UHD: 2K, 4K, 8K) [ 24.36 GB ] Король Лев / The Lion King [2019 мультфильм мюзикл UHD BDRip 2160p] DUB [] bober100 Скачать
3 | 0
3D Мультфильмы [ 13.45 GB ] Король Лев 3Д / The Lion King 3D [2019 мультфильм мюзикл BDRip 1080p] [Anamorph SideBySide] DUB [] bober100 Скачать
4 | 0
Иностранные мультфильмы [ 2.36 GB ] Король Лев / The Lion King [2019 мультфильм мюзикл BDRip-AVC] DUB [] - ExKinoRay Enigma2010 Скачать
44 | 1
Зарубежные Мультфильмы (BDRip 1080p, 720p, Blu-ray, BD-Remux) [ 4.71 GB ] Король Лев / The Lion King [2019 мультфильм мюзикл BDRip 720p] DUB [] - ExKinoRay Enigma2010 Скачать
393 | 71
Зарубежные Мультфильмы (BDRip 1080p, 720p, Blu-ray, BD-Remux) [ 41.53 GB ] Король Лев / The Lion King [2019 мультфильм мюзикл Blu-ray EUR 1080p] DUB [] bober100 Скачать
1 | 0
3D Мультфильмы [ 11.54 GB ] Король Лев 3Д / The Lion King 3D [2019 мультфильм мюзикл BDRip 1080p] [Half OverUnder] DUB [] bober100 Скачать
1 | 0

28-11-2019 20:33  

Отключить всю рекламу на сайте

    Дорогой пользователь! Огромная просьба, поблагодарите релизера, оцените раздачу и оставьте свои комментарий, если Вы скачали Король Лев через торрент бесплатно! Внесите свою лепту в развитие PiratBit!
    Комментировать посты могут только пользователи прошедшие не сложную регистрацию
    Показать сообщения:    

    Король Лев через торрент
    Скачать бесплатно Король Лев
    Король Лев скачать торрент
    Король Лев смотреть онлайн
    Cкачать фильм Король Лев бесплатно
    Король Лев скачать торрент в хорошем качестве
    Король Лев смотреть онлайн бесплатно в хорошем качестве


    Вы не можете начинать темы
    Вы не можете отвечать на сообщения
    Вы не можете редактировать свои сообщения
    Вы не можете удалять свои сообщения
    Вы не можете голосовать в опросах
    Вы не можете прикреплять файлы к сообщениям
    Вы можете скачивать файлы