Ссылка на приватное зеркало всего за 1$. Внимание количество ограничено!!!


iTunes

1+1

iTunes

мы

WEB-DL

1

iTunes

Чернобыль

iTunes

Ральф против интернета

Лицензия

ПШазам

Лицензия

Оно 2

WEB-DL

30
pack

Вам бонус

ВАЖНО

!!Акция!!

Alien_RageХит недели

RePack

Resident Evil 21

ИГРА 18+

pack

RePack

jed

!!Акция!!

Alien_Rage

RePack

fifa19

RePack

Assassins Creed: Odyssey

RePack

NEED FOR SPEED™ PAYBACK

4 сезон

9 сезон

Бесстыжие 9 сезон

Все сериалы

все сериалы на PB.wtf

RePack

FAR CRY 5
Ребята, катастрофически не хватает 1900р. для оплаты серверов за Октябрь (всвязи с блокировками трафик упал в 3 раза), 1-2р., выручайте.
  

Стриптизёрши / Hustlers (Лорин Скафария) [2019, комедия, BDRip-AVC] DUB [iTunes] piratbit.xyz

Стриптизёрши через торрент piratbit.xyz

Раздают: 20 [ 0.3 KB/s ]
Размер: 1.67 GB | Добавлен: 14 д. назад | Торрент скачан:155 раз
Скачать  

26-11-2019 14:16 Стриптизёрши Скачать торрент  

Стриптизёрши / Hustlers«Inspired by a True Story»
Год выпуска: 2019
Страна: США
Жанр: комедия
Продолжительность: 01:49:40
Перевод: Дублированный | iTunes
Субтитры: отсутствуют

Режиссер: Лорин Скафария

rating

В ролях: Констанс Ву, Дженнифер Лопез, Джулия Стайлз, Кеке Палмер, Лили Рейнхарт, Карди Би, Lizzo, Мадлен Брюэр, Метте Таули, Трейс Лисетт

Описание: Они - яркие, сексуальные и очень амбициозные. Они - танцовщицы элитного стриптиз-клуба, клиенты которого - известные финансисты с Уолл-Стрит. Но когда банковский кризис в одночасье превращает накопления девушек в пыль, подруги по несчастью жаждут отомстить. Они разрабатывают дерзкий план как вернуть потерянные деньги, чтобы снова вести роскошную гламурную жизнь, и отплатить биржевым гениям, оставив их без гроша.

Качество: BDRip-AVC
Формат: MKV

Видео: 1024x428 (2.40:1), 23,976 fps, x264 ~1 782 kbps avg, 0.170 bit/pixel
Аудио: 48 kHz, AC3 Dolby Digital, 3/2 (L,C,R,l,r) + LFE ch, ~384.00 kbps avg | RUS (iTunes)
скриншот  скриншот  скриншот  скриншот  скриншот  

Общее
Уникальный идентификатор : 132046839439191378374495735382428218341 (0x63574BD4AA499E2415C19DD62791F3E5)
Полное имя : F:OlLanDGroupHustlers.2019.BDRip(AVC).OllanDGroup.mkv
Формат : Matroska
Версия формата : Version 4 / Version 2
Размер файла : 1,67 Гбайт
Продолжительность : 1 ч. 50 м.
Общий поток : 2166 Кбит/сек
Название фильма : Hustlers 2019 #TorpedoUK#
Дата кодирования : UTC 2019-12-01 17:03:33
Программа кодирования : mkvmerge v29.0.0 ('Like It Or Not') 64-bit
Библиотека кодирования : libebml v1.3.6 + libmatroska v1.4.9

Видео
Идентификатор : 1
Формат : AVC
Формат/Информация : Advanced Video Codec
Профиль формата : High@L4.1
Параметр CABAC формата : Да
Параметр ReFrames формата : 10 кадров
Идентификатор кодека : V_MPEG4/ISO/AVC
Продолжительность : 1 ч. 50 м.
Битрейт : 1782 Кбит/сек
Ширина : 1024 пикселя
Высота : 428 пикселей
Соотношение сторон : 2,40:1
Режим частоты кадров : Постоянный
Частота кадров : 23,976 (24000/1001) кадра/сек
Цветовое пространство : YUV
Субдискретизация насыщенности : 4:2:0
Битовая глубина : 8 бит
Тип развёртки : Прогрессивная
Бит/(Пиксели*Кадры) : 0.170
Размер потока : 1,37 Гбайт (82%)
Библиотека кодирования : x264 core 146 r2538 121396c
Настройки программы : cabac=1 / ref=10 / deblock=1:-3:-3 / analyse=0x3:0x113 / me=umh / subme=11 / psy=1 / psy_rd=0.99:0.04 / mixed_ref=1 / me_range=48 / chroma_me=1 / trellis=2 / 8x8dct=1 / cqm=0 / deadzone=21,11 / fast_pskip=1 / chroma_qp_offset=-6 / threads=6 / lookahead_threads=1 / sliced_threads=0 / nr=0 / decimate=1 / interlaced=0 / bluray_compat=0 / constrained_intra=0 / bframes=11 / b_pyramid=2 / b_adapt=2 / b_bias=0 / direct=3 / weightb=1 / open_gop=0 / weightp=2 / keyint=240 / keyint_min=23 / scenecut=40 / intra_refresh=0 / rc_lookahead=40 / rc=2pass / mbtree=0 / bitrate=1782 / ratetol=1.0 / qcomp=0.60 / qpmin=0 / qpmax=69 / qpstep=4 / cplxblur=20.0 / qblur=0.5 / vbv_maxrate=50000 / vbv_bufsize=62500 / nal_hrd=none / filler=0 / ip_ratio=1.40 / pb_ratio=1.30 / aq=1:1.00
Язык : English
Default : Да
Forced : Нет

Аудио
Идентификатор : 2
Формат : AC-3
Формат/Информация : Audio Coding 3
Расширение режима : CM (complete main)
Параметр Endianness формата : Big
Идентификатор кодека : A_AC3
Продолжительность : 1 ч. 49 м.
Вид битрейта : Постоянный
Битрейт : 384 Кбит/сек
Каналы : 6 каналов
Расположение каналов : Front: L C R, Side: L R, LFE
Частота : 48,0 КГц
Частота кадров : 31,250 кадров/сек (1536 spf)
Битовая глубина : 16 бит
Метод сжатия : С потерями
Размер потока : 301 Мбайт (18%)
Заголовок : DUB [iTunes]
Язык : Russian
Default : Да
Forced : Нет

Меню
00:00:00.000 : en:00:00:00.000
00:05:09.017 : en:00:05:09.017
00:11:19.345 : en:00:11:19.345
00:15:04.821 : en:00:15:04.821
00:21:22.823 : en:00:21:22.823
00:24:47.736 : en:00:24:47.736
00:30:46.178 : en:00:30:46.178
00:35:16.698 : en:00:35:16.698
00:40:44.067 : en:00:40:44.067
00:45:31.979 : en:00:45:31.979
00:52:58.550 : en:00:52:58.550
01:00:36.758 : en:01:00:36.758
01:04:27.030 : en:01:04:27.030
01:10:08.287 : en:01:10:08.287
01:15:02.581 : en:01:15:02.581
01:20:53.724 : en:01:20:53.724
01:27:47.762 : en:01:27:47.762
01:32:23.329 : en:01:32:23.329
01:37:27.091 : en:01:37:27.091
01:42:29.977 : en:01:42:29.977

piratbit.xyz



Скачать Стриптизёрши через торрент https://c.radikal.ru/c16/1912/b6/a4de50095eb3.jpg Скачать фильм Стриптизёрши через торрент бесплантно в хорошем качестве Описание: Они - яркие, сексуальные и очень амбициозные. Они - танцовщицы элитного стриптиз-клуба, клиенты которого - известные финансисты с ... 8.9 10 9
Торрент: Зарегистрирован [2019-12-01 19:15] · скачан: 155 раз
Статус: √ проверено
Размер: 1.67 GB
Как cкачать? Как скачать Стриптизёрши через торрент | qTorrent

% Раздел Тема Автор DL S | L
Фильмы [HD 720p, 1080p] (Хороший звук DUB, MVO) [ 11.98 GB ] Стриптизёрши / Hustlers [2019 BDRip 1080p] bober100 Скачать
14 | 0
Ultra HD (UHD: 2K, 4K, 8K) — видео сверхвысокой чёткости [ 15.45 GB ] Стриптизёрши / Hustlers [2019 UHD BDRip 2160p] bober100 Скачать
4 | 0
Фильмы 2019 [DVDrip, WEB-DLRip, HDrip] (DUB, MVO) [ 1.45 GB ] Стриптизёрши / Hustlers [2019 WEB-DLRip-AVC] - ExKinoRay Enigma2010 Скачать
49 | 0
Фильмы 2019 [DVDrip, WEB-DLRip, HDrip] (DUB, MVO) [ 1.41 GB ] Стриптизёрши / Hustlers [2019 BDRip] bober100 Скачать
14 | 0
Фильмы [HD 720p, 1080p] (Хороший звук DUB, MVO) [ 5.25 GB ] Стриптизёрши / Hustlers [2019 BDRip 720p] bober100 Скачать
6 | 1
Ultra HD (UHD: 2K, 4K, 8K) — видео сверхвысокой чёткости [ 55.25 GB ] Стриптизёрши / Hustlers [2019 UHD BDRemux 2160p] bober100 Скачать
2 | 0
Фильмы (Blu-ray, BD-Remux, HDDVD) [ 28.54 GB ] Стриптизёрши / Hustlers [2019 BD Remux ] Бумер Скачать
2 | 0


Последний раз редактировалось: bober100 (2019-12-01 19:15), всего редактировалось 2 раз(а)

28-11-2019 20:33  

Отключить всю рекламу на сайте

01-12-2019 19:03 Стриптизёрши Скачать торрент  

хороший фильм. мне понравилось.не затянуто.Лопес молодец piratbit.xyz



    Дорогой пользователь! Огромная просьба, поблагодарите релизера, оцените раздачу и оставьте свои комментарий, если Вы скачали Стриптизёрши через торрент бесплатно! Внесите свою лепту в развитие PiratBit!
    Комментировать посты могут только пользователи прошедшие не сложную регистрацию
    Показать сообщения:    

    Стриптизёрши через торрент
    Скачать бесплатно Стриптизёрши
    Стриптизёрши скачать торрент
    Стриптизёрши смотреть онлайн
    Cкачать фильм Стриптизёрши бесплатно
    Стриптизёрши скачать торрент в хорошем качестве
    Стриптизёрши смотреть онлайн бесплатно в хорошем качестве


    Вы не можете начинать темы
    Вы не можете отвечать на сообщения
    Вы не можете редактировать свои сообщения
    Вы не можете удалять свои сообщения
    Вы не можете голосовать в опросах
    Вы не можете прикреплять файлы к сообщениям
    Вы можете скачивать файлы