новый адрес
Ссылка на приватное зеркало всего за 1$. Внимание количество ограничено!!!

iTunes

1+1

iTunes

мы

WEB-DL

1

iTunes

Чернобыль

iTunes

Ральф против интернета

Лицензия

ПШазам

Лицензия

Оно 2

Лицензия

30
pack

Вам бонус

ВАЖНО

!!Акция!!

Alien_RageХит недели

RePack

Resident Evil 21

ИГРА 18+

pack

RePack

jed

!!Акция!!

Alien_Rage

RePack

fifa19

RePack

Assassins Creed: Odyssey

RePack

NEED FOR SPEED™ PAYBACK

3 сезон

9 сезон

Бесстыжие 9 сезон

Все сериалы

все сериалы на PB.wtf

RePack

FAR CRY 5
Ребята, катастрофически не хватает 1900р. для оплаты серверов за Октябрь (всвязи с блокировками трафик упал в 3 раза), 1-2р., выручайте.
  

Современная любовь / Modern Love / Сезон: 1 / Серии: 1-8 из 8 (Джон Карни, Том Холл, Шэрон Хорган) [2019, Мелодрама, WEBRip 720p] [DVO] (Кубик в Кубе) piratbit.xyz

Современная любовь через торрент piratbit.xyz

Размер: 17.93 GB | Добавлен: 7 ч. назад | Торрент скачан:1 раз
Скачать  

25-11-2019 20:29 Современная любовь Скачать торрент  

Современная любовь / Modern Love Год выпуска: 2019
Страна: США
Жанр: Мелодрама
Продолжительность: ~00:32:00
Перевод: Профессиональный (двухголосый закадровый) | Кубик в Кубе
Субтитры: Английские

Режиссёр: Джон Карни, Том Холл, Шэрон Хорган

В ролях: Джон Галлахер мл., Кристин Милиоти, София Бутелла, Кэтрин Кинер, Тина Фей, Оливия Кук, Джулия Гарнер, Гари Карр, Дев Патель, Энн Хэтэуэй

Описание: Истории из жизни людей, которые влюбляются и ссорятся, сходятся и расходятся, всячески пытаются справиться с любовью в современном мире.

rating

Качество: WEBRip 720p
Контейнер: MKV

Видео: 1280x640 at 23.976 fps, MPEG-4 AVC, ~9000 kbps avg
Аудио 1: 48 kHz, AC3, 3/2 (L,C,R,l,r) + LFE ch, ~640.00 kbps avg |Двухголосый закадровый, Кубик в Кубе|
Аудио 2: English: 48 kHz, AC3, 3/2 (L,C,R,l,r) + LFE ch, ~640.00 kbps avg
General
Unique ID : 179086672013058501930841474262292109812 (0x86BAD6A327E4E3B285EC96A725F619F4)
Complete name : E:\Modern.Love.S01.WEBRip.CasStudio.TK\Modern.Love.S01E01.When.The.Doorman.Is.Your.Main.Man.720p.WEBRip.KvK.CasStudio.TK.mkv
Format : Matroska
Format version : Version 4 / Version 2
File size : 2.20 GiB
Duration : 31 min 44 s
Overall bit rate : 9 907 kb/s
Movie name : Modern Love 01x01 (When The Doorman Is Your Main Man) - release by messafan for CasStudio.TK
Encoded date : UTC 2019-11-20 14:11:45
Writing application : mkvmerge v6.7.0 ('Back to the Ground') 64bit built on Jan 8 2014 15:10:52
Writing library : libebml v1.3.0 + libmatroska v1.4.1

Video
ID : 1
Format : AVC
Format/Info : Advanced Video Codec
Format profile : High@L4.1
Format settings : CABAC / 10 Ref Frames
Format settings, CABAC : Yes
Format settings, RefFrames : 10 frames
Codec ID : V_MPEG4/ISO/AVC
Duration : 31 min 44 s
Bit rate : 8 429 kb/s
Width : 1 280 pixels
Height : 640 pixels
Display aspect ratio : 2.000
Frame rate mode : Constant
Frame rate : 23.976 (24000/1001) FPS
Color space : YUV
Chroma subsampling : 4:2:0
Bit depth : 8 bits
Scan type : Progressive
Bits/(Pixel*Frame) : 0.429
Stream size : 1.87 GiB (85%)
Writing library : x264 core 157 r2969 d4099dd
Encoding settings : cabac=1 / ref=10 / deblock=1:-3:-3 / analyse=0x3:0x133 / me=umh / subme=10 / psy=1 / psy_rd=1.00:0.15 / mixed_ref=1 / me_range=48 / chroma_me=1 / trellis=2 / 8x8dct=1 / cqm=0 / deadzone=21,11 / fast_pskip=0 / chroma_qp_offset=-3 / threads=20 / lookahead_threads=3 / sliced_threads=0 / nr=0 / decimate=0 / interlaced=0 / bluray_compat=0 / constrained_intra=0 / bframes=8 / b_pyramid=2 / b_adapt=2 / b_bias=0 / direct=3 / weightb=1 / open_gop=0 / weightp=2 / keyint=250 / keyint_min=23 / scenecut=40 / intra_refresh=0 / rc=crf / mbtree=0 / crf=16.0 / qcomp=0.60 / qpmin=0 / qpmax=69 / qpstep=4 / ip_ratio=1.30 / pb_ratio=1.20 / aq=3:0.80
Language : English
Default : Yes
Forced : No

Audio #1
ID : 2
Format : AC-3
Format/Info : Audio Coding 3
Format settings, Endianness : Big
Codec ID : A_AC3
Duration : 31 min 44 s
Bit rate mode : Constant
Bit rate : 640 kb/s
Channel(s) : 6 channels
Channel positions : Front: L C R, Side: L R, LFE
Sampling rate : 48.0 kHz
Frame rate : 31.250 FPS (1536 SPF)
Bit depth : 16 bits
Compression mode : Lossy
Stream size : 145 MiB (6%)
Title : KvK DD5.1 @ 640kbps
Language : Russian
Service kind : Complete Main
Default : No
Forced : No

Audio #2
ID : 3
Format : AC-3
Format/Info : Audio Coding 3
Format settings, Endianness : Big
Codec ID : A_AC3
Duration : 31 min 44 s
Bit rate mode : Constant
Bit rate : 640 kb/s
Channel(s) : 6 channels
Channel positions : Front: L C R, Side: L R, LFE
Sampling rate : 48.0 kHz
Frame rate : 31.250 FPS (1536 SPF)
Bit depth : 16 bits
Compression mode : Lossy
Stream size : 145 MiB (6%)
Title : English DD5.1 @ 640kbps
Language : English
Service kind : Complete Main
Default : No
Forced : No

Text
ID : 4
Format : UTF-8
Codec ID : S_TEXT/UTF8
Codec ID/Info : UTF-8 Plain Text
Title : SDH
Language : English
Default : No
Forced : No

Menu
00:00:00.000 : en:Amazon Original
00:00:05.000 : en:Acknowledgement
00:00:10.000 : en:Opening Credits
00:01:07.000 : en:A kiss goodnight
00:04:00.000 : en:Title Sequence
00:04:06.000 : en:Guzmin is overprotective
00:09:36.000 : en:Men are predictable
00:11:44.000 : en:Something is different
00:16:12.000 : en:Maggie tells Ted the truth
00:18:15.000 : en:Maggie and Guzmin share a bond
00:21:18.000 : en:Everything changes with new life
00:25:42.000 : en:Some tough news
00:28:01.000 : en:The truth is in the eyes
00:30:45.000 : en:End Credits
скриншот  скриншот  скриншот  
При каждом добавлении создаётся новый торрент. Чтобы начать докачку новой серии, пользователям необходимо сделать следующее:
  • остановить скачивание,
  • удалить старый торрент у себя из клиента (старые серии удалять не надо),
  • скачать новый торрент и запустить его у себя в клиенте вместо старого, при этом указать клиенту путь в старую папку куда и должно происходить скачивание новых серий.

    Ваш клиент при этом должен произвести хеширование (проверку) старой папки (если не производит сам - помогите ему сделать это), и будет докачивать только те серии которых у вас ещё нет. Старые серии при этом не удаляются, а продолжают раздаваться!
    Eсли вы уже удалили старые серии, то предотвратить повторную закачку старых серий можно, отжав галочку в соответствующих местах при запуске нового торрента. По возможности, желательно не удалять старые серии как можно дольше чтобы релизёр не столько продолжал раздавать старые серии, а смог сконцентрироваться на новых.
  • piratbit.xyz



    Скачать Современная любовь через торрент https://i111.fastpic.ru/big/2019/1125/b4/9be564e931d80354c0652ead84157bb4.png Скачать фильм Современная любовь через торрент бесплантно в хорошем качестве Описание: Истории из жизни людей, которые влюбляются и ссорятся, сходятся и расходятся, всячески пытаются справиться с любовью в ... 8.5 10 2
    Торрент: Зарегистрирован [2019-12-12 14:09] · скачан: 1 раз
    Статус: √ проверено
    Размер: 17.93 GB
    Как cкачать? Как скачать Современная любовь через торрент | qTorrent

    % Раздел Тема Автор DL S | L
    Зарубежные сериалы [ 18.24 GB ] Современная любовь / Modern Love / Сезон: 1 / Серии: 1-8 из 8 [2019 Мело WEBRip 1080p] MVO [TVShows] bober100 Скачать
    1 | 0

    28-11-2019 20:33  

    Отключить всю рекламу на сайте

      Дорогой пользователь! Огромная просьба, поблагодарите релизера, оцените раздачу и оставьте свои комментарий, если Вы скачали Современная любовь через торрент бесплатно! Внесите свою лепту в развитие PiratBit!
      Комментировать посты могут только пользователи прошедшие не сложную регистрацию
      Показать сообщения:    

      Современная любовь через торрент
      Скачать бесплатно Современная любовь
      Современная любовь скачать торрент
      Современная любовь смотреть онлайн
      Cкачать фильм Современная любовь бесплатно
      Современная любовь скачать торрент в хорошем качестве
      Современная любовь смотреть онлайн бесплатно в хорошем качестве


      Вы не можете начинать темы
      Вы не можете отвечать на сообщения
      Вы не можете редактировать свои сообщения
      Вы не можете удалять свои сообщения
      Вы не можете голосовать в опросах
      Вы не можете прикреплять файлы к сообщениям
      Вы можете скачивать файлы