новый адрес
Ссылка на приватное зеркало всего за 1$. Внимание количество ограничено!!!

iTunes

1+1

iTunes

мы

WEB-DL

1

iTunes

Чернобыль

iTunes

Ральф против интернета

Лицензия

ПШазам

Лицензия

Оно 2

Лицензия

30
pack

Вам бонус

ВАЖНО

!!Акция!!

Alien_RageХит недели

RePack

Resident Evil 21

ИГРА 18+

pack

RePack

jed

!!Акция!!

Alien_Rage

RePack

fifa19

RePack

Assassins Creed: Odyssey

RePack

NEED FOR SPEED™ PAYBACK

3 сезон

9 сезон

Бесстыжие 9 сезон

Все сериалы

все сериалы на PB.wtf

RePack

FAR CRY 5
Ребята, катастрофически не хватает 1900р. для оплаты серверов за Октябрь (всвязи с блокировками трафик упал в 3 раза), 1-2р., выручайте.
  

Кольцо Намея / Nameja gredzens / The Pagan King (Айгарс Грауба) [2018, исторический, драма, HDRip-AVC] DVO [SDI Media] - ExKinoRay piratbit.xyz

Кольцо Намея через торрент piratbit.xyz

Раздают: 46 [ 890 KB/s ] Качают: 3 [ 0 KB/s ]
Размер: 2.27 GB | Добавлен: 21 д. назад | Торрент скачан:178 раз
Скачать  

19-11-2019 03:51 Кольцо Намея Скачать торрент  

Название: Кольцо Намея
Оригинальное название: Nameja gredzens / The Pagan King
Год выхода: 2018
Жанр: исторический, драма
Режиссер: Айгарс Грауба
В ролях: Эдвин Эндре, Джеймс Блур, Дайнис Грубе, Гинтс Андзанс, Джеймс Александер, Майя Озолиня, Томс Ауниньш, Кристофер Дэйн, Иева Александрова-Элконе, Айсте Диржюте, Эгонс Домбровкис, Лаурис Дзелзитис и др.

Описание:
Сюжет фильма разворачивается в эпоху крестовых походов XIII века, богатые земли балтских языческих племён находятся в сфере интересов Рима, особенно Земгале, которая контролирует значимые торговые пути и никогда никому не подчинялась. Папа Римский поручает своему бастарду Максу, который стал известен благодаря своей жестокости, отправиться на север и подчинить свободолюбивых земгалов,, которые посмели отвергнуть христианство.

Когда убивают Земгальского короля, кольцо власти переходит к молодому Намею. Смелость Намея заменяет ему отсутствие опыта, и он готов вести за собой народ. Вдохновленный первыми победами, Намей начинает свой нелёгкий путь...

rating

Страна: Великобритания, Латвия
Продолжительность: 01:49:52
Перевод: Профессиональный (двухголосый закадровый) [SDI Media]

Формат: MKV
Качество: HDRip-AVC
Видео: MPEG-4 AVC, 1024x426 (2.40:1), 23.976 fps, 2407 Kbps, 0.212 bit/pixel
Аудио #01: 48 kHz, AC3, 2.0, 192 Kbps | RUS |
Аудио #02: 48 kHz, AC3, 5.1, 448 Kbps | ENG |
General
Unique ID : 247033911847980915832373117100763859993 (0xB9D9003521877EAB9ED616A521874C19)
Complete name : F:\The.Pagan.King.2018.HDRip.AVC.ExKinoRay.mkv
Format : Matroska
Format version : Version 2
File size : 2.27 GiB
Duration : 1 h 50 min
Overall bit rate : 2 949 kb/s
Movie name : The Pagan King 2018 from ExKinoRay
Encoded date : UTC 2019-11-18 05:43:12
Writing application : mkvmerge v5.6.0 ('Kenya Kane') built on May 27 2012 16:44:04
Writing library : libebml v1.2.3 + libmatroska v1.3.0

Video
ID : 1
Format : AVC
Format/Info : Advanced Video Codec
Format profile : High@L4.1
Format settings, CABAC : Yes
Format settings, ReFrames : 12 frames
Codec ID : V_MPEG4/ISO/AVC
Duration : 1 h 50 min
Bit rate : 2 307 kb/s
Width : 1 024 pixels
Height : 426 pixels
Display aspect ratio : 2.40:1
Frame rate mode : Constant
Frame rate : 25.000 FPS
Color space : YUV
Chroma subsampling : 4:2:0
Bit depth : 8 bits
Scan type : Progressive
Bits/(Pixel*Frame) : 0.212
Stream size : 1.73 GiB (76%)
Title : Enigma
Writing library : x264 core 152 r2851 ba24899
Encoding settings : cabac=1 / ref=12 / deblock=1:-2:-2 / analyse=0x3:0x113 / me=umh / subme=10 / psy=1 / psy_rd=1.05:0.10 / mixed_ref=1 / me_range=32 / chroma_me=1 / trellis=2 / 8x8dct=1 / cqm=0 / deadzone=21,11 / fast_pskip=0 / chroma_qp_offset=-3 / threads=12 / lookahead_threads=3 / sliced_threads=0 / nr=0 / decimate=0 / interlaced=0 / bluray_compat=0 / constrained_intra=0 / bframes=12 / b_pyramid=2 / b_adapt=2 / b_bias=0 / direct=3 / weightb=1 / open_gop=0 / weightp=2 / keyint=250 / keyint_min=25 / scenecut=40 / intra_refresh=0 / rc=2pass / mbtree=0 / bitrate=2307 / ratetol=1.0 / qcomp=0.60 / qpmin=0 / qpmax=51 / qpstep=4 / cplxblur=20.0 / qblur=0.5 / ip_ratio=1.40 / pb_ratio=1.30 / aq=1:1.00
Language : English
Default : Yes
Forced : No
Color range : Limited
Color primaries : BT.709
Transfer characteristics : BT.709
Matrix coefficients : BT.709

Audio #1
ID : 2
Format : AC-3
Format/Info : Audio Coding 3
Mode extension : CM (complete main)
Format settings, Endianness : Big
Codec ID : A_AC3
Duration : 1 h 50 min
Bit rate mode : Constant
Bit rate : 192 kb/s
Channel(s) : 2 channels
Channel positions : Front: L R
Sampling rate : 48.0 kHz
Frame rate : 31.250 FPS (1536 spf)
Compression mode : Lossy
Stream size : 151 MiB (7%)
Title : MVO
Language : Russian
Default : Yes
Forced : No

Audio #2
ID : 3
Format : AC-3
Format/Info : Audio Coding 3
Mode extension : CM (complete main)
Format settings, Endianness : Big
Codec ID : A_AC3
Duration : 1 h 50 min
Bit rate mode : Constant
Bit rate : 448 kb/s
Channel(s) : 6 channels
Channel positions : Front: L C R, Side: L R, LFE
Sampling rate : 48.0 kHz
Frame rate : 31.250 FPS (1536 spf)
Compression mode : Lossy
Stream size : 353 MiB (15%)
Language : English
Default : No
Forced : No

Menu
00:00:00.000 : :Chapter 01
00:10:22.040 : :Chapter 02
00:19:21.440 : :Chapter 03
00:27:29.680 : :Chapter 04
00:36:26.480 : :Chapter 05
00:45:40.120 : :Chapter 06
00:54:46.920 : :Chapter 07
01:03:04.200 : :Chapter 08
01:11:25.360 : :Chapter 09
01:21:44.080 : :Chapter 10
01:30:27.040 : :Chapter 11
01:39:19.080 : :Chapter 12


Релиз от:

Автор релиза: piratbit.xyz



Скачать Кольцо Намея через торрент https://img15.lostpic.net/2019/11/17/eb416aa00b7e0f9c24a5aa7c518ba9b4.jpg Скачать фильм Кольцо Намея через торрент бесплантно в хорошем качестве Описание:Сюжет фильма разворачивается в эпоху крестовых походов XIII века, богатые земли балтских языческих племён находятся в сфере ... 9.8 10 5
Info! Золотая раздача, скачанное не засчитывается.
Торрент: Зарегистрирован [2019-11-19 03:51] · скачан: 178 раз
Статус: T временная
Размер: 2.27 GB
Как cкачать? Как скачать Кольцо Намея через торрент | qTorrent

28-11-2019 20:33  

Отключить всю рекламу на сайте

19-11-2019 08:18 Кольцо Намея Скачать торрент  

страна производства сего творения?piratbit.xyz



22-11-2019 13:35 Кольцо Намея Скачать торрент  

fedoruche писал(а):

страна производства сего творения?

Страна: Великобритания, Латвияpiratbit.xyz



    Дорогой пользователь! Огромная просьба, поблагодарите релизера, оцените раздачу и оставьте свои комментарий, если Вы скачали Кольцо Намея через торрент бесплатно! Внесите свою лепту в развитие PiratBit!
    Комментировать посты могут только пользователи прошедшие не сложную регистрацию
    Показать сообщения:    

    Кольцо Намея через торрент
    Скачать бесплатно Кольцо Намея
    Кольцо Намея скачать торрент
    Кольцо Намея смотреть онлайн
    Cкачать фильм Кольцо Намея бесплатно
    Кольцо Намея скачать торрент в хорошем качестве
    Кольцо Намея смотреть онлайн бесплатно в хорошем качестве


    Вы не можете начинать темы
    Вы не можете отвечать на сообщения
    Вы не можете редактировать свои сообщения
    Вы не можете удалять свои сообщения
    Вы не можете голосовать в опросах
    Вы не можете прикреплять файлы к сообщениям
    Вы можете скачивать файлы