новый адрес
Ссылка на приватное зеркало всего за 1$. Внимание количество ограничено!!!

iTunes

1+1

iTunes

мы

WEB-DL

1

iTunes

Чернобыль

iTunes

Ральф против интернета

Лицензия

ПШазам

Лицензия

Оно 2

Лицензия

30
pack

Вам бонус

ВАЖНО

!!Акция!!

Alien_RageХит недели

RePack

Resident Evil 21

ИГРА 18+

pack

RePack

jed

!!Акция!!

Alien_Rage

RePack

fifa19

RePack

Assassins Creed: Odyssey

RePack

NEED FOR SPEED™ PAYBACK

3 сезон

9 сезон

Бесстыжие 9 сезон

Все сериалы

все сериалы на PB.wtf

RePack

FAR CRY 5
Ребята, катастрофически не хватает 1900р. для оплаты серверов за Октябрь (всвязи с блокировками трафик упал в 3 раза), 1-2р., выручайте.
  

Рэй Донован / Ray Donovan / Сезон: 7 / Серии: 1-4 из 12 (Джон Дал, Майкл Аппендаль, Такер Гейтс) [2019, драма, криминал, WEBRip 1080p] DVO [Gears Media] piratbit.xyz

Рэй Донован через торрент piratbit.xyz

Раздают: 3 [ 0 KB/s ]
Размер: 12.83 GB | Добавлен: 3 д. назад | Торрент скачан:3 раза
Скачать  

18-11-2019 18:40 Рэй Донован Скачать торрент  

Рэй Донован / Ray Donovan Год выпуска: 2019
Страна: США
Жанр: драма, криминал
Продолжительность: ~ 00:50:00
Перевод: Профессиональный (двухголосый) | Gears Media
Субтитры: отсутствуют

Режиссер: Джон Дал, Майкл Аппендаль, Такер Гейтс

rating

В ролях: Лив Шрайбер, Эдди Марсан, Дэш Майок, Кэтрин Менниг, Пуч Холл, Кэррис Дорси, Джон Войт, Девон Бэгби, Паула Малкомсон, Стивен Бауэр

Описание: Отправляемся в США, штат Калифорния. Именно здесь живет Рэй Донован, занимающийся необычным бизнесом. Герой является экспертом в области устранения любых жизненных трудностей. Эффективность работы зависит от вознаграждения. К Рэю и его верным помощникам постоянно обращаются за помощью богатенькие дяденьки, мечтающие вернуть доброе имя и очистить испорченную репутацию. Однако решение проблем чужих людей - дело трудное. Рэй же опытен в своем деле. За многие годы работы он встречался с массой различных ситуаций, из которых выходил сухим. Однако в личной жизни Рэя случается непредвиденное. Двадцать лет минуло с тех пор, как его отец сел за решетку. День его освобождения близок. Главный герой переживает, что встреча с отцом может изменить его жизнь полностью!

Качество: WEBRip 1080p
Формат: MKV

Видео: h.264, ~ 9000 Кбит/с, 1920x1080
Аудио: Русский (AC3, 2 ch, 384 Кбит/с)
скриншот  скриншот  скриншот  скриншот  

Общее
Уникальный идентификатор : 83716413544550888609745935420434463241 (0x3EFB31DC546C2FD483CF4D13A644BA09)
Полное имя : C:\Ray Donovan S07 (2019) 1080p WEBRip [Gears Media]\Ray Donovan S07E01 (2019) 1080p WEBRip [Gears Media].mkv
Формат : Matroska
Версия формата : Version 4 / Version 2
Размер файла : 3,29 Гбайт
Продолжительность : 51 м. 31 с.
Общий поток : 9147 Кбит/сек
Дата кодирования : UTC 2019-11-18 15:55:41
Программа кодирования : mkvmerge v39.0.0 ('In The Waiting Line') 64-bit
Библиотека кодирования : libebml v1.3.9 + libmatroska v1.5.2

Видео
Идентификатор : 1
Формат : AVC
Формат/Информация : Advanced Video Codec
Профиль формата : High@L4.1
Параметр CABAC формата : Да
Параметр RefFrames формата : 4 кадра
Идентификатор кодека : V_MPEG4/ISO/AVC
Продолжительность : 51 м. 31 с.
Битрейт : 8781 Кбит/сек
Ширина : 1920 пикселей
Высота : 1080 пикселей
Соотношение сторон : 16:9
Режим частоты кадров : Постоянный
Частота кадров : 23,976 (24000/1001) кадра/сек
Цветовое пространство : YUV
Субдискретизация насыщенности : 4:2:0
Битовая глубина : 8 бит
Тип развёртки : Прогрессивная
Бит/(Пиксели*Кадры) : 0.173
Размер потока : 3,09 Гбайт (94%)
Язык : English
Default : Да
Forced : Нет
Цветовой диапазон : Limited
Основные цвета : BT.709
Характеристики трансфера : BT.709
Коэффициенты матрицы : BT.709

Аудио
Идентификатор : 2
Формат : AC-3
Формат/Информация : Audio Coding 3
Расширение режима : CM (complete main)
Параметр Endianness формата : Big
Идентификатор кодека : A_AC3
Продолжительность : 51 м. 31 с.
Вид битрейта : Постоянный
Битрейт : 384 Кбит/сек
Каналы : 2 канала
Расположение каналов : Front: L R
Частота : 48,0 КГц
Частота кадров : 31,250 кадров/сек (1536 spf)
Метод сжатия : С потерями
Размер потока : 142 Мбайт (4%)
Язык : Russian
Default : Да
Forced : Да

Внимание! Раздача ведётся путём добавления новых серий; при каждом добавлении создаётся новый торрент. Чтобы начать докачку новой серии, пользователям необходимо сделать следующее:
(1) остановить скачивание,
(2) удалить старый торрент у себя из клиента (старые серии удалять не надо),
(3) скачать новый торрент и запустить его у себя в клиенте вместо старого, при этом указать клиенту путь в старую папку куда и должно происходить скачивание новых серий.

Ваш клиент при этом должен произвести хеширование (проверку) старой папки (если не производит сам - помогите ему сделать это), и будет докачивать только те серии которых у вас ещё нет. Старые серии при этом не удаляются, а продолжают раздаваться!

Eсли вы уже удалили старые серии, то предотвратить повторную закачку старых серий можно, отжав галочку в соответствующих местах при запуске нового торрента. По возможности, желательно не удалять старые серии как можно дольше чтобы релизёр не столько продолжал раздавать старые серии, а смог сконцентрироваться на новых.
piratbit.xyz



Скачать Рэй Донован через торрент http://i57.fastpic.ru/big/2015/0714/71/9b19cf4941d1d3a0f22cd36336ce5871.jpg Скачать фильм Рэй Донован через торрент бесплантно в хорошем качестве Описание: Отправляемся в США, штат Калифорния. Именно здесь живет Рэй Донован, занимающийся необычным бизнесом. Герой является экспертом в ... 10 10 6
Торрент: Зарегистрирован [2019-12-09 18:46] · скачан: 3 раз
Статус: √ проверено
Размер: 12.83 GB
Как cкачать? Как скачать Рэй Донован через торрент | qTorrent

% Раздел Тема Автор DL S | L
Рэй Донован [ 11.37 GB ] Рэй Донован / Ray Donovan / Сезон: 7 / Серия: 1-4 из 12 [2019 WEB-DL 1080p] MVO [Jaskier] bober100 Скачать
1 | 0
T Рэй Донован [ 1.92 GB ] Рэй Донован / Ray Donovan / Сезон: 7 / Серии: 1-4 из 12 [2019 WEB-DLRip] [MVO] killermax2013 Скачать
2 | 0
Рэй Донован [ 11.73 GB ] Рэй Донован / Ray Donovan / Сезон: 7 / Серия: 1-4 из 12 [2019 WEB-DL 1080p] MVO [TVShows] bober100 Скачать
2 | 4
Рэй Донован [ 6.07 GB ] Рэй Донован / Ray Donovan / Сезон: 7 / Серия: 1-4 из 12 [2019 WEB-DL 720p] MVO [TVShows] bober100 Скачать
1 | 1
Рэй Донован [ 5.71 GB ] Рэй Донован / Ray Donovan / Сезон: 7 / Серия: 1-4 из 12 [2019 WEB-DL 720p] MVO [Jaskier] bober100 Скачать
1 | 2
Рэй Донован [ 2.33 GB ] Рэй Донован / Ray Donovan / Сезон: 7 / Серия: 1-4 из 12 [2019 WEB-DLRip] MVO [Jaskier] bober100 Скачать
1 | 2

28-11-2019 20:33  

Отключить всю рекламу на сайте

    Дорогой пользователь! Огромная просьба, поблагодарите релизера, оцените раздачу и оставьте свои комментарий, если Вы скачали Рэй Донован через торрент бесплатно! Внесите свою лепту в развитие PiratBit!
    Комментировать посты могут только пользователи прошедшие не сложную регистрацию
    Показать сообщения:    

    Рэй Донован через торрент
    Скачать бесплатно Рэй Донован
    Рэй Донован скачать торрент
    Рэй Донован смотреть онлайн
    Cкачать фильм Рэй Донован бесплатно
    Рэй Донован скачать торрент в хорошем качестве
    Рэй Донован смотреть онлайн бесплатно в хорошем качестве


    Вы не можете начинать темы
    Вы не можете отвечать на сообщения
    Вы не можете редактировать свои сообщения
    Вы не можете удалять свои сообщения
    Вы не можете голосовать в опросах
    Вы не можете прикреплять файлы к сообщениям
    Вы можете скачивать файлы