Ссылка на приватное зеркало всего за 1$. Внимание количество ограничено!!!


iTunes

1+1

iTunes

мы

WEB-DL

1

iTunes

Чернобыль

iTunes

Ральф против интернета

Лицензия

ПШазам

Лицензия

Оно 2

WEB-DL

30
pack

Вам бонус

ВАЖНО

!!Акция!!

Alien_RageХит недели

RePack

Resident Evil 21

ИГРА 18+

pack

RePack

jed

!!Акция!!

Alien_Rage

RePack

fifa19

RePack

Assassins Creed: Odyssey

RePack

NEED FOR SPEED™ PAYBACK

4 сезон

9 сезон

Бесстыжие 9 сезон

Все сериалы

все сериалы на PB.wtf

RePack

FAR CRY 5
Ребята, катастрофически не хватает 1900р. для оплаты серверов за Октябрь (всвязи с блокировками трафик упал в 3 раза), 1-2р., выручайте.
  

Поездка в Америку / Coming to America (Джон Лэндис) [1988 г., мелодрама, комедия, HDRip | КПК от R.G.Resident] MVO piratbit.xyz

Поездка в Америку через торрент piratbit.xyz

Раздают: 5 [ 0 KB/s ]
Размер: 522 MB | Добавлен: 1 мес. 5 д. назад | Торрент скачан:15 раз
Скачать  

10-11-2019 17:22 Поездка в Америку Скачать торрент  

Поездка в Америку / Coming to AmericaСлоган: «The Four Funniest Men in America are Eddie Murphy»

Год выпуска: 1988
Страна: США
Жанр: мелодрама, комедия

Продолжительность: 01:56:49
Перевод: Профессиональный (многоголосый)
Субтитры: Нет

Режиссёр: Джон Лэндис
В ролях: Эдди Мёрфи, Арсенио Холл, Джеймс Эрл Джонс, Мэдж Синклер, Джон Эймос, Шэри Хидли, Эрик Ла Салль, Фрэнки Фэйзон, Пол Бейтс, Луи Андерсон

Описание: Наследный принц африканского государства хочет сам найти себе жену и едет для этого в Америку. Там он представляется обычным человеком и поступает на работу в закусочную, так как его выбор пал на дочь хозяина

Релиз от:
Рип от: Страна

rating

Качество: HDRip
Формат: MP4
Видео кодек: AVC
Аудио кодек: AAC
Видео: 480x272, 23,976 fps, 490 kbps
Аудио: 2 ch, 48,0 kHz, 128 Kbps
Общее
Полное имя : D:\Кино\Поездка в Америку.mp4
Формат : MPEG-4
Профиль формата : Base Media
Идентификатор кодека : isom (isom/avc1)
Размер файла : 522 Мбайт
Продолжительность : 1 ч. 56 м.
Режим общего битрейта : Переменный
Общий поток : 625 Кбит/сек
Дата кодирования : UTC 2019-11-09 15:52:01
Дата пометки : UTC 2019-11-09 15:52:01

Видео
Идентификатор : 1
Формат : AVC
Формат/Информация : Advanced Video Codec
Профиль формата : High@L2
Настройки формата : CABAC / 8 Ref Frames
Параметр CABAC формата : Да
Параметр RefFrames формата : 8 кадров
Идентификатор кодека : avc1
Идентификатор кодека/Информация : Advanced Video Coding
Продолжительность : 1 ч. 56 м.
Битрейт : 490 Кбит/сек
Максимальный битрейт : 1799 Кбит/сек
Ширина : 480 пикселей
Высота : 272 пикселя
Соотношение сторон : 16:9
Режим частоты кадров : Постоянный
Частота кадров : 23,976 (24000/1001) кадра/сек
Цветовое пространство : YUV
Субдискретизация насыщенности : 4:2:0
Битовая глубина : 8 бит
Тип развёртки : Прогрессивная
Бит/(Пиксели*Кадры) : 0.157
Размер потока : 409 Мбайт (78%)
Библиотека кодирования : x264 core 65 r999kMod cc51047
Настройки программы : cabac=1 / ref=8 / deblock=1:0:0 / analyse=0x3:0x133 / me=umh / subme=8 / psy_rd=1.0:0.0 / mixed_ref=1 / me_range=24 / chroma_me=1 / trellis=1 / 8x8dct=1 / cqm=0 / deadzone=21,11 / chroma_qp_offset=-2 / threads=4 / thread_queue=4 / nr=0 / decimate=1 / mbaff=0 / bframes=8 / b_pyramid=0 / b_adapt=1 / b_bias=0 / direct=3 / wpredb=1 / keyint=250 / keyint_min=25 / scenecut=40(pre) / rc=2pass / bitrate=490 / ratetol=1.0 / qcomp=0.60 / qpmin=10 / qpmax=51 / qpstep=4 / cplxblur=20.0 / qblur=0.5 / ip_ratio=1.40 / pb_ratio=1.30 / aq=1:1.00
Дата кодирования : UTC 2019-11-09 15:52:01
Дата пометки : UTC 2019-11-09 15:52:19
Codec configuration box : avcC

Аудио
Идентификатор : 2
Формат : AAC LC
Формат/Информация : Advanced Audio Codec Low Complexity
Идентификатор кодека : mp4a-40-2
Продолжительность : 1 ч. 56 м.
Вид битрейта : Переменный
Битрейт : 132 Кбит/сек
Максимальный битрейт : 137 Кбит/сек
Каналы : 2 канала
ChannelLayout : L R
Частота : 48,0 КГц
Частота кадров : 46,875 кадров/сек (1024 SPF)
Метод сжатия : С потерями
Размер потока : 110 Мбайт (21%)
Дата кодирования : UTC 2019-11-09 15:52:18
Дата пометки : UTC 2019-11-09 15:52:19
piratbit.xyz



Скачать Поездка в Америку через торрент https://i111.fastpic.ru/big/2019/1110/6f/dfeb2c39d77ff9f0b0d5a3284ccc2d6f.png Скачать фильм Поездка в Америку через торрент бесплантно в хорошем качестве Описание: Наследный принц африканского государства хочет сам найти себе жену и едет для этого в Америку. Там он представляется обычным ... 10 10 3
Info! Золотая раздача, скачанное не засчитывается.
Торрент: Зарегистрирован [2019-11-10 17:22] · скачан: 15 раз
Статус: √ проверено
Размер: 522 MB
Как cкачать? Как скачать Поездка в Америку через торрент | qTorrent

% Раздел Тема Автор DL S | L
Фильмы (Blu-ray, BD-Remux, HDDVD) [ 23.09 GB ] Поездка в Америку / Coming To America [1988 Blu-ray disc 1080p] 3x[AVO] + 3x[DVO] + 2x[MVO] +[DVO] killermax2013 Скачать
1 | 0
Фильмы до 2000 г. [ 2.09 GB ] Поездка в Америку / Coming To America [1988 BDRip] 3x[MVO] killermax2013 Скачать
2 | 0

28-11-2019 20:33  

Отключить всю рекламу на сайте

    Дорогой пользователь! Огромная просьба, поблагодарите релизера, оцените раздачу и оставьте свои комментарий, если Вы скачали Поездка в Америку через торрент бесплатно! Внесите свою лепту в развитие PiratBit!
    Комментировать посты могут только пользователи прошедшие не сложную регистрацию
    Показать сообщения:    

    Поездка в Америку через торрент
    Скачать бесплатно Поездка в Америку
    Поездка в Америку скачать торрент
    Поездка в Америку смотреть онлайн
    Cкачать фильм Поездка в Америку бесплатно
    Поездка в Америку скачать торрент в хорошем качестве
    Поездка в Америку смотреть онлайн бесплатно в хорошем качестве


    Вы не можете начинать темы
    Вы не можете отвечать на сообщения
    Вы не можете редактировать свои сообщения
    Вы не можете удалять свои сообщения
    Вы не можете голосовать в опросах
    Вы не можете прикреплять файлы к сообщениям
    Вы можете скачивать файлы