новый адрес
Мега распродажа FORZA HORIZON 4 ULTIMATE+ВСЕ DLC+ОНЛАЙН всего за 499р. 349 руб. (супер цена). Внимание количество ограничено!!!

iTunes

1+1

iTunes

мы

iTunes

1

iTunes

Чернобыль

iTunes

Ральф против интернета

Лицензия

ПШазам

Лицензия

Игра престолов

Лицензия

30
pack

ВАЖНО

!!Акция!!

Alien_RageХит недели

RePack

Resident Evil 21

ИГРА 18+

pack

RePack

Metro:Exodus

!!Акция!!

Alien_Rage

RePack

fifa19

RePack

Assassins Creed: Odyssey

RePack

NEED FOR SPEED™ PAYBACK

3 сезон

9 сезон

Бесстыжие 9 сезон

Все сериалы

все сериалы на PB.wtf

RePack

FAR CRY 5
Ребята, катастрофически не хватает 1900р. для оплаты серверов за Октябрь (всвязи с блокировками трафик упал в 3 раза), 1-2р., выручайте.
  

Однажды в Ирландии / The Guard (Джон Майкл МакДона) [2011 г., Триллер, комедия, криминал, BDRip 1080p-HEVC 10bit, Профессиональный (одноголосый)] piratbit.xyz

Однажды в Ирландии через торрент piratbit.xyz

Раздают: 11 [ 1 KB/s ] Качают: 1 [ 0 KB/s ]
Размер: 4.2 GB | Добавлен: 10 д. назад | Торрент скачан:99 раз
Скачать  

07-11-2019 07:37 Однажды в Ирландии Скачать торрент  

Однажды в Ирландии / The Guard
Год выпуска: 2011
Страна: Ирландия
Жанр: Триллер, комедия, криминал
Продолжительность: 01:35:49
Перевод: Профессиональный (одноголосый)
Субтитры: нет

Режиссер: Джон Майкл МакДона



В ролях: Брендан Глисон, Дон Чидл, Марк Стронг, Лиам Каннингэм, Дэвид Уилмот, Рори Кинэн, Фионнула Флэнаган, Доминик МакЭллигот, Сара Грин, Катарина Кэс

Описание: Женщины, выпивка и веселые шутки — вот радости добродушного ирландского полицейского, сержанта Джерри Бойла. Он никогда не помышлял о геройстве, пока однажды в Дублине не появился агент ФБР, который призвал незадачливого служителя порядка помочь ему накрыть международную банду наркоторговцев. Смогут ли сработаться веселый рыжий ирландец и решительный афроамериканец? Ведь дело, за которое они взялись, окажется таким же непредсказуемым, как и они сами…

Качество: BDRip 1080p
Формат: MKV
Видео кодек: H.265
Аудио кодек: AC3
Видео: HEVC/H.265, 1920x820, ~4996 Kbps
Аудио#1: AC3, 6 ch, 640 Kbps Русский Профессиональный (одноголосый) Дмитрий «Гоблин» Пучков
Аудио#2: AC3, 6 ch, 640 Kbps Русский Профессиональный (одноголосый) Юрий Сербин
Релиз от: ADVOKAT69
скриншот  ,скриншот  ,скриншот  ,скриншот  ,

Общее
Уникальный идентификатор : 216502717122421189612970269267345985270 (0xA2E0E816978F3B98BD7A5B5524D2CEF6)
Полное имя : E:\Однажды в Ирландии (2011) HEVC 10bit.mkv
Формат : Matroska
Версия формата : Version 4
Размер файла : 4,20 Гбайт
Продолжительность : 1 ч. 35 м.
Общий поток : 6278 Кбит/сек
Название фильма : The Guard
Дата кодирования : UTC 2019-11-06 12:39:50
Программа кодирования : mkvmerge v9.2.0 ('Photograph') 64bit
Библиотека кодирования : libebml v1.3.3 + libmatroska v1.4.4

Видео
Идентификатор : 1
Формат : HEVC
Формат/Информация : High Efficiency Video Coding
Профиль формата : Main 10@L4@Main
Идентификатор кодека : V_MPEGH/ISO/HEVC
Продолжительность : 1 ч. 35 м.
Битрейт : 4996 Кбит/сек
Ширина : 1920 пикселей
Высота : 820 пикселей
Соотношение сторон : 2,35:1
Режим частоты кадров : Постоянный
Частота кадров : 23,976 (24000/1001) кадра/сек
Цветовое пространство : YUV
Субдискретизация насыщенности : 4:2:0
Битовая глубина : 10 бит
Бит/(Пиксели*Кадры) : 0.132
Размер потока : 3,34 Гбайт (80%)
Библиотека кодирования : x265 3.2+5-354901970679:[Windows][GCC 9.2.0][64 bit] 10bit
Настройки программы : cpuid=1111039 / frame-threads=3 / numa-pools=8 / wpp / no-pmode / no-pme / no-psnr / no-ssim / log-level=2 / input-csp=1 / input-res=1920x820 / interlace=0 / total-frames=137856 / level-idc=0 / high-tier=1 / uhd-bd=0 / ref=4 / no-allow-non-conformance / no-repeat-headers / annexb / no-aud / no-hrd / info / hash=0 / no-temporal-layers / open-gop / min-keyint=23 / keyint=250 / gop-lookahead=0 / bframes=4 / b-adapt=2 / b-pyramid / bframe-bias=0 / rc-lookahead=25 / lookahead-slices=4 / scenecut=40 / radl=0 / no-splice / no-intra-refresh / ctu=64 / min-cu-size=8 / rect / no-amp / max-tu-size=32 / tu-inter-depth=1 / tu-intra-depth=1 / limit-tu=0 / rdoq-level=2 / dynamic-rd=0.00 / no-ssim-rd / signhide / no-tskip / nr-intra=0 / nr-inter=0 / no-constrained-intra / strong-intra-smoothing / max-merge=3 / limit-refs=3 / limit-modes / me=3 / subme=3 / merange=57 / temporal-mvp / no-frame-dup / no-hme / weightp / no-weightb / no-analyze-src-pics / deblock=0:0 / no-sao / no-sao-non-deblock / rd=4 / selective-sao=0 / no-early-skip / rskip / no-fast-intra / no-tskip-fast / no-cu-lossless / no-b-intra / no-splitrd-skip / rdpenalty=0 / psy-rd=2.00 / psy-rdoq=1.00 / no-rd-refine / no-lossless / cbqpoffs=0 / crqpoffs=0 / rc=abr / bitrate=5000 / qcomp=0.60 / qpstep=4 / stats-write=0 / stats-read=2 / cplxblur=20.0 / qblur=0.5 / ipratio=1.40 / pbratio=1.30 / aq-mode=3 / aq-strength=1.00 / cutree / zone-count=0 / no-strict-cbr / qg-size=32 / no-rc-grain / qpmax=69 / qpmin=0 / no-const-vbv / sar=0 / overscan=0 / videoformat=5 / range=0 / colorprim=2 / transfer=2 / colormatrix=2 / chromaloc=0 / display-window=0 / cll=0,0 / min-luma=0 / max-luma=1023 / log2-max-poc-lsb=8 / vui-timing-info / vui-hrd-info / slices=1 / no-opt-qp-pps / no-opt-ref-list-length-pps / multi-pass-opt-rps / scenecut-bias=0.05 / no-opt-cu-delta-qp / aq-motion / no-hdr / no-hdr-opt / no-dhdr10-opt / no-idr-recovery-sei / analysis-reuse-level=5 / scale-factor=0 / refine-intra=0 / refine-inter=0 / refine-mv=1 / refine-ctu-distortion=0 / no-limit-sao / ctu-info=0 / no-lowpass-dct / refine-analysis-type=0 / copy-pic=1 / max-ausize-factor=1.0 / no-dynamic-refine / no-single-sei / no-hevc-aq / no-svt / no-field / qp-adaptation-range=1.00
Default : Да
Forced : Нет

Аудио #1
Идентификатор : 2
Формат : AC-3
Формат/Информация : Audio Coding 3
Коммерческое название : Dolby Digital
Идентификатор кодека : A_AC3
Продолжительность : 1 ч. 35 м.
Вид битрейта : Постоянный
Битрейт : 640 Кбит/сек
Каналы : 6 каналов
Channel layout : L R C LFE Ls Rs
Частота : 48,0 КГц
Частота кадров : 31,250 кадров/сек (1536 SPF)
Битовая глубина : 16 бит
Метод сжатия : С потерями
Размер потока : 439 Мбайт (10%)
Заголовок : Дмитрий «Гоблин» Пучков
ServiceKind/String : Complete Main
Default : Да
Forced : Нет

Аудио #2
Идентификатор : 3
Формат : AC-3
Формат/Информация : Audio Coding 3
Коммерческое название : Dolby Digital
Идентификатор кодека : A_AC3
Продолжительность : 1 ч. 35 м.
Вид битрейта : Постоянный
Битрейт : 640 Кбит/сек
Каналы : 6 каналов
Channel layout : L R C LFE Ls Rs
Частота : 48,0 КГц
Частота кадров : 31,250 кадров/сек (1536 SPF)
Битовая глубина : 16 бит
Метод сжатия : С потерями
Размер потока : 439 Мбайт (10%)
Заголовок : Ю.Сербин
ServiceKind/String : Complete Main
Default : Нет
Forced : Нет

Меню
00:00:00.000 : en:Chapter 01
00:06:52.036 : en:Chapter 02
00:12:38.299 : en:Chapter 03
00:16:27.194 : en:Chapter 04
00:26:50.650 : en:Chapter 05
00:29:43.406 : en:Chapter 06
00:34:01.914 : en:Chapter 07
00:37:51.560 : en:Chapter 08
00:46:52.392 : en:Chapter 09
00:50:18.348 : en:Chapter 10
00:54:05.825 : en:Chapter 11
01:03:24.342 : en:Chapter 12
01:09:28.205 : en:Chapter 13
01:15:43.789 : en:Chapter 14
01:22:26.274 : en:Chapter 15
01:27:44.425 : en:Chapter 16

piratbit.xyz



Скачать Однажды в Ирландии через торрент https://a.radikal.ru/a10/1911/e8/0e2321a22cf2.png Скачать фильм Однажды в Ирландии через торрент бесплантно в хорошем качестве Описание: Женщины, выпивка и веселые шутки — вот радости добродушного ирландского полицейского, сержанта Джерри Бойла. Он никогда не ... 10 10 5
Торрент: Зарегистрирован [2019-11-07 07:37] · скачан: 99 раз
Статус: √ проверено
Размер: 4.2 GB
Как cкачать? Как скачать Однажды в Ирландии через торрент | qTorrent

% Раздел Тема Автор DL S | L
Фильмы с авторской озвучкой [ 5.96 GB ] Однажды в Ирландии / The Guard [2011 BDRip ] shuller Скачать
9 | 0
Фильмы с авторской озвучкой [ 7.76 GB ] Однажды в Ирландии / The Guard [2011 Ирландия BDRip 1080p2хAVO _denis_100 Скачать
2 | 0
Фильмы с авторской озвучкой [ 748 MB ] Однажды в Ирландии / The Guard [2011 Ирландия HDRip] AVO Д. Пучков dexter lex Скачать
2 | 0
Фильмы 2011 [ 1.47 GB ] Однажды в Ирландии / The Guard [2011 HDRip] SD Скачать
3 | 0
Фильмы (DVD фильмы) [ 5.8 GB ] Однажды в Ирландии / The Guard [2011 DVD9] R5 voovaz Скачать
1 | 0
T Фильмы 2011 [ 1.36 GB ] Однажды в Ирландии / Залечь на дно в Дублине / The Guard [2011 HDRip] coc900 Скачать
1 | 0
Фильмы 2011 [ 1.65 GB ] Однажды в Ирландии / The Guard [2011 HDRip-AVC] L2 + Original + Sub ADS Скачать
1 | 0


>> Регистрируемся здесь <<






Отзывы и комментарии о схеме читаем и пишем здесь: ---> Отзывы и комментарии о схеме

Новые благодарочки в телеграм довольных пользователей:
скриншот   скриншот   скриншот   скриншот   скриншот
    Дорогой пользователь! Огромная просьба, поблагодарите релизера, оцените раздачу и оставьте свои комментарий, если Вы скачали Однажды в Ирландии через торрент бесплатно! Внесите свою лепту в развитие PiratBit!
    Комментировать посты могут только пользователи прошедшие не сложную регистрацию
    Показать сообщения:    

    Однажды в Ирландии через торрент
    Скачать бесплатно Однажды в Ирландии
    Однажды в Ирландии скачать торрент
    Однажды в Ирландии смотреть онлайн
    Cкачать фильм Однажды в Ирландии бесплатно
    Однажды в Ирландии скачать торрент в хорошем качестве
    Однажды в Ирландии смотреть онлайн бесплатно в хорошем качестве


    Вы не можете начинать темы
    Вы не можете отвечать на сообщения
    Вы не можете редактировать свои сообщения
    Вы не можете удалять свои сообщения
    Вы не можете голосовать в опросах
    Вы не можете прикреплять файлы к сообщениям
    Вы можете скачивать файлы