новый адрес
Мега распродажа FORZA HORIZON 4 ULTIMATE+ВСЕ DLC+ОНЛАЙН всего за 499р. 349 руб. (супер цена). Внимание количество ограничено!!!

iTunes

1+1

iTunes

мы

iTunes

1

iTunes

Чернобыль

iTunes

Ральф против интернета

Лицензия

ПШазам

Лицензия

Игра престолов

Лицензия

30
pack

ВАЖНО

!!Акция!!

Alien_RageХит недели

RePack

Resident Evil 21

ИГРА 18+

pack

RePack

Metro:Exodus

!!Акция!!

Alien_Rage

RePack

fifa19

RePack

Assassins Creed: Odyssey

RePack

NEED FOR SPEED™ PAYBACK

3 сезон

9 сезон

Бесстыжие 9 сезон

Все сериалы

все сериалы на PB.wtf

RePack

FAR CRY 5
Ребята, катастрофически не хватает 1900р. для оплаты серверов за Октябрь (всвязи с блокировками трафик упал в 3 раза), 1-2р., выручайте.
  

Игра Ганнибала / Nomis / Night Hunter (Дэвид Рэймонд) [2018, Боевик, триллер, BDRip-AVC] DUB [iTunes] +MVO [HDrezka Studio] piratbit.xyz

Игра Ганнибала через торрент piratbit.xyz

Раздают: 33 [ 494 KB/s ] Качают: 2 [ 0 KB/s ]
Размер: 1.96 GB | Добавлен: 10 д. назад | Торрент скачан:206 раз
Скачать  

07-11-2019 01:37 Игра Ганнибала Скачать торрент  

Игра Ганнибала / Nomis / Night Hunter«Его разные личности играют в разные игры...»
Год выпуска: 2018
Страна: Канада, США
Студия: Arcola Entertainment, Arise Pictures, Buffalo Gal Pictures
Жанр: Боевик, триллер
Продолжительность: 01:38:58
Перевод:

#1: Дублированный | iTunes
#2: Профессиональный (многоголосый) | HDRezka studio

Субтитры: Русские (форс.), Английские (полные)

Режиссер: Дэвид Рэймонд

rating

В ролях: Бен Кингсли, Стэнли Туччи, Александра Даддарио, Генри Кавилл, Минка Келли, Натан Филлион, Сара Томпсон, Элиана Джонс, Брендан Флетчер, Эмма Тремблей

Описание: Выслеживая неуловимого серийного убийцу, виновного в похищении и изнасиловании нескольких девушек, закаленный в боях полицейский Маршалл встречает бывшего судью Купера и юную Лару, которые используют против насильников собственные методы правосудия. Когда Лару похищает разыскиваемый Маршаллом преступник, которым оказывается психически неуравновешенный Саймон, ему удается выследить и арестовать его. Коллега героя Рейчел считает, что в теле подозреваемого уживается сразу несколько личностей, одна из которых затеяла опасную игру с полицейскими. Ее догадка подтверждается после того, как происходит серия новых преступлений, а все улики указывают на находящегося под стражей Саймона…

Качество: BDRip-AVC
Формат: MKV

Видео: 1024x428 (2.40:1), 23,976 fps, x264 ~1 812 kbps avg, 0.172 bit/pixel
Аудио #1: 48 kHz, AC3 Dolby Digital, 3/2 (L,C,R,l,r) + LFE ch, ~384.00 kbps avg | RUS (iTunes)
Аудио #2: 48 kHz, AC3 Dolby Digital, 2 (L,R), ~192.00 kbps avg | RUS (HDRezka Studio)
Аудио #3: 48 kHz, AC3 Dolby Digital, 3/2 (L,C,R,l,r) + LFE ch, ~448.00 kbps avg | ENG
скриншот  скриншот  скриншот  

скриншот  скриншот  скриншот  

Общее
Уникальный идентификатор : 49743928363510682299530767711911490297 (0x256C5505BABAB195FD4534654CC732F9)
Полное имя : F:\OlLanDGroup\Nomis.2018.BDRip(AVC).OlLanDGroup.mkv
Формат : Matroska
Версия формата : Version 4 / Version 2
Размер файла : 1,96 Гбайт
Продолжительность : 1 ч. 38 м.
Общий поток : 2837 Кбит/сек
Название фильма : Nomis.2018 #TorpedoUK#
Дата кодирования : UTC 2019-11-07 01:00:36
Программа кодирования : mkvmerge v29.0.0 ('Like It Or Not') 64-bit
Библиотека кодирования : libebml v1.3.6 + libmatroska v1.4.9

Видео
Идентификатор : 1
Формат : AVC
Формат/Информация : Advanced Video Codec
Профиль формата : High@L4.1
Параметр CABAC формата : Да
Параметр ReFrames формата : 10 кадров
Идентификатор кодека : V_MPEG4/ISO/AVC
Продолжительность : 1 ч. 38 м.
Битрейт : 1812 Кбит/сек
Ширина : 1024 пикселя
Высота : 428 пикселей
Соотношение сторон : 2,40:1
Режим частоты кадров : Постоянный
Частота кадров : 23,976 (24000/1001) кадра/сек
Цветовое пространство : YUV
Субдискретизация насыщенности : 4:2:0
Битовая глубина : 8 бит
Тип развёртки : Прогрессивная
Бит/(Пиксели*Кадры) : 0.172
Размер потока : 1,25 Гбайт (64%)
Библиотека кодирования : x264 core 146 r2538 121396c
Настройки программы : cabac=1 / ref=10 / deblock=1:-3:-3 / analyse=0x3:0x113 / me=umh / subme=11 / psy=1 / psy_rd=0.95:0.07 / mixed_ref=1 / me_range=48 / chroma_me=1 / trellis=2 / 8x8dct=1 / cqm=0 / deadzone=21,11 / fast_pskip=1 / chroma_qp_offset=-6 / threads=6 / lookahead_threads=1 / sliced_threads=0 / nr=0 / decimate=1 / interlaced=0 / bluray_compat=0 / constrained_intra=0 / bframes=11 / b_pyramid=2 / b_adapt=2 / b_bias=0 / direct=3 / weightb=1 / open_gop=0 / weightp=2 / keyint=240 / keyint_min=23 / scenecut=40 / intra_refresh=0 / rc_lookahead=40 / rc=2pass / mbtree=0 / bitrate=1812 / ratetol=1.0 / qcomp=0.60 / qpmin=0 / qpmax=69 / qpstep=4 / cplxblur=20.0 / qblur=0.5 / vbv_maxrate=50000 / vbv_bufsize=62500 / nal_hrd=none / filler=0 / ip_ratio=1.40 / pb_ratio=1.30 / aq=1:1.00
Язык : English
Default : Да
Forced : Нет

Аудио #1
Идентификатор : 2
Формат : AC-3
Формат/Информация : Audio Coding 3
Расширение режима : CM (complete main)
Параметр Endianness формата : Big
Идентификатор кодека : A_AC3
Продолжительность : 1 ч. 38 м.
Вид битрейта : Постоянный
Битрейт : 384 Кбит/сек
Каналы : 6 каналов
Расположение каналов : Front: L C R, Side: L R, LFE
Частота : 48,0 КГц
Частота кадров : 31,250 кадров/сек (1536 spf)
Битовая глубина : 16 бит
Метод сжатия : С потерями
Размер потока : 272 Мбайт (14%)
Заголовок : DUB [iTunes]
Язык : Russian
Default : Да
Forced : Нет

Аудио #2
Идентификатор : 3
Формат : AC-3
Формат/Информация : Audio Coding 3
Расширение режима : CM (complete main)
Параметр Endianness формата : Big
Идентификатор кодека : A_AC3
Продолжительность : 1 ч. 38 м.
Вид битрейта : Постоянный
Битрейт : 192 Кбит/сек
Каналы : 2 канала
Расположение каналов : Front: L R
Частота : 48,0 КГц
Частота кадров : 31,250 кадров/сек (1536 spf)
Битовая глубина : 16 бит
Метод сжатия : С потерями
Размер потока : 136 Мбайт (7%)
Заголовок : MVO [HDRezka Studio]
Язык : Russian
Default : Нет
Forced : Нет

Аудио #3
Идентификатор : 4
Формат : AC-3
Формат/Информация : Audio Coding 3
Расширение режима : CM (complete main)
Параметр Endianness формата : Big
Идентификатор кодека : A_AC3
Продолжительность : 1 ч. 38 м.
Вид битрейта : Постоянный
Битрейт : 448 Кбит/сек
Каналы : 6 каналов
Расположение каналов : Front: L C R, Side: L R, LFE
Частота : 48,0 КГц
Частота кадров : 31,250 кадров/сек (1536 spf)
Битовая глубина : 16 бит
Метод сжатия : С потерями
Размер потока : 317 Мбайт (16%)
Заголовок : [Original]
Язык : English
Default : Нет
Forced : Нет

Текст #1
Идентификатор : 5
Формат : UTF-8
Идентификатор кодека : S_TEXT/UTF8
Идентификатор кодека/Информация : UTF-8 Plain Text
Продолжительность : 1 ч. 1 м.
Битрейт : 1 бит/сек
Count of elements : 12
Размер потока : 490 байт (0%)
Заголовок : Forced
Язык : Russian
Default : Да
Forced : Нет

Текст #2
Идентификатор : 6
Формат : UTF-8
Идентификатор кодека : S_TEXT/UTF8
Идентификатор кодека/Информация : UTF-8 Plain Text
Продолжительность : 1 ч. 32 м.
Битрейт : 43 бит/сек
Count of elements : 1100
Размер потока : 29,4 Кбайт (0%)
Заголовок : Full
Язык : English
Default : Нет
Forced : Нет

Меню
00:00:00.000 : en:Chapter 01
00:13:20.299 : en:Chapter 02
00:25:10.884 : en:Chapter 03
00:40:01.107 : en:Chapter 04
00:53:13.315 : en:Chapter 05
01:08:14.507 : en:Chapter 06
01:23:00.142 : en:Chapter 07
01:33:35.652 : en:Chapter 08

piratbit.xyz



Скачать Игра Ганнибала через торрент https://i87.fastpic.ru/big/2019/0912/1a/74424e3c261f1c20059d735c4265a11a.jpg Скачать фильм Игра Ганнибала через торрент бесплантно в хорошем качестве Описание: Выслеживая неуловимого серийного убийцу, виновного в похищении и изнасиловании нескольких девушек, закаленный в боях полицейский ... 9.7 10 11
Торрент: Зарегистрирован [2019-11-07 01:37] · скачан: 206 раз
Статус: √ проверено
Размер: 1.96 GB
Как cкачать? Как скачать Игра Ганнибала через торрент | qTorrent

% Раздел Тема Автор DL S | L
Фильмы 2018 [DVDrip, WEB-DLRip, HDrip] (DUB, MVO) [ 1.42 GB ] Игра Ганнибала / Nomis / Night Hunter [2018 BDRip] - Twi7ter Скачать
90 | 7
Фильмы 2018 [DVDrip, WEB-DLRip, HDrip] (DUB, MVO) [ 743 MB ] Игра Ганнибала / Nomis / Night Hunter [2018 BDRip-AVC] - OlLanDGroup Skandar2019 Скачать
11 | 0
Фильмы (Blu-ray, BD-Remux, HDDVD) [ 21.17 GB ] Игра Ганнибала / Nomis / Night Hunter [2018 BD Remux 1080p] +MVO [HDrezka Studio] bober100 Скачать
3 | 1
Фильмы 2018 [DVDrip, WEB-DLRip, HDrip] (DUB, MVO) [ 1.42 GB ] Игра Ганнибала / Nomis / Night Hunter [2018 BDRip] bober100 Скачать
13 | 0
Фильмы [HD 720p, 1080p] (Хороший звук DUB, MVO) [ 8.17 GB ] Игра Ганнибала / Nomis / Night Hunter [2018 BDRip 1080p] +MVO [HDrezka Studio] bober100 Скачать
20 | 1
Фильмы [HD 720p, 1080p] (Хороший звук DUB, MVO) [ 4.04 GB ] Игра Ганнибала / Nomis / Night Hunter [2018 BDRip 720p] +MVO [HDrezka Studio] bober100 Скачать
8 | 0
T Фильмы 2018 [DVDrip, WEB-DLRip, HDrip] (DUB, MVO) [ 1.36 GB ] Игра Ганнибала / Night Hunter / Nomis [2018 WEB-DLRip] MVO [HDRezka Studio] - ExKinoRay Enigma2010 Скачать
884 | 52


>> Регистрируемся здесь <<






Отзывы и комментарии о схеме читаем и пишем здесь: ---> Отзывы и комментарии о схеме

Новые благодарочки в телеграм довольных пользователей:
скриншот   скриншот   скриншот   скриншот   скриншот

07-11-2019 07:37 Игра Ганнибала Скачать торрент  

ГДЕ-ТО...ЭТО...МЫ УЖЕ СЛЫШАЛИ И ВИДЕЛИ...piratbit.xyz



  1. Не разрешается ЗЛОУПОТРЕБЛЯТЬ заглавными буквами (сюда не относится написание отдельных слов или предложений в верхнем регистре для выделения какой-то мысли или отдельного слова). Запрещено написание сообщений одними заглавными или многократно повторяющимися буквами, например: Дааааааааа или ВОТ ТАК ВОТ ПИСАТЬ НЕЛЬЗЯ. Является какое-либо слово или предложение, нарушением данного пункта., выдал bober100

07-11-2019 19:22 Игра Ганнибала Скачать торрент  

какой то сериал наш смотрел, там похожий сюжетpiratbit.xyz



    Дорогой пользователь! Огромная просьба, поблагодарите релизера, оцените раздачу и оставьте свои комментарий, если Вы скачали Игра Ганнибала через торрент бесплатно! Внесите свою лепту в развитие PiratBit!
    Комментировать посты могут только пользователи прошедшие не сложную регистрацию
    Показать сообщения:    

    Игра Ганнибала через торрент
    Скачать бесплатно Игра Ганнибала
    Игра Ганнибала скачать торрент
    Игра Ганнибала смотреть онлайн
    Cкачать фильм Игра Ганнибала бесплатно
    Игра Ганнибала скачать торрент в хорошем качестве
    Игра Ганнибала смотреть онлайн бесплатно в хорошем качестве


    Вы не можете начинать темы
    Вы не можете отвечать на сообщения
    Вы не можете редактировать свои сообщения
    Вы не можете удалять свои сообщения
    Вы не можете голосовать в опросах
    Вы не можете прикреплять файлы к сообщениям
    Вы можете скачивать файлы