новый адрес
Ссылка на приватное зеркало всего за 1$. Внимание количество ограничено!!!

iTunes

1+1

iTunes

мы

iTunes

1

iTunes

Чернобыль

iTunes

Ральф против интернета

Лицензия

ПШазам

Лицензия

Оно 2

Лицензия

30
pack

Вам бонус

ВАЖНО

!!Акция!!

Alien_RageХит недели

RePack

Resident Evil 21

ИГРА 18+

pack

RePack

jed

!!Акция!!

Alien_Rage

RePack

fifa19

RePack

Assassins Creed: Odyssey

RePack

NEED FOR SPEED™ PAYBACK

3 сезон

9 сезон

Бесстыжие 9 сезон

Все сериалы

все сериалы на PB.wtf

RePack

FAR CRY 5
Ребята, катастрофически не хватает 1900р. для оплаты серверов за Октябрь (всвязи с блокировками трафик упал в 3 раза), 1-2р., выручайте.
  

Анна / Anna (Люк Бессон) [2019, боевик, триллер, BDRip - HEVC 1080p 10 bit 60 FPS] Дубляж - [Лицензия / iTunes] piratbit.xyz

Анна через торрент piratbit.xyz

Раздают: 16 [ 0 KB/s ]
Размер: 3.65 GB | Добавлен: 15 д. назад | Торрент скачан:195 раз
Скачать  

06-11-2019 15:28 Анна Скачать торрент  

Анна / Anna
««Никогда не делай оружие мишенью»»

Год выпуска: 2019
Страна: Франция
Жанр: боевик,
Продолжительность: 01:59:00
Перевод: Дубляж - [Лицензия / iTunes]
Режиссер: Люк Бессон
В ролях:

Саша Лусс (Anna), Хелен Миррен (Olga), Люк Эванс (Alex Tchenkov), Киллиан Мёрфи (Lenny Miller), Лера Абова (Maud), Александр Петров (Piotr), Никита Павленко (Vlad), Анна Криппа (Nika), Алексей Маслодудов (Jimmy), Эрик Годон (Vassiliev), Иван Франек (Mossan), Жан-Батист Пюэк (Samy)
Описание:
Москва, конец 1980-х. Скаут французского модельного агентства находит на Измайловском рынке подходящую ему по всем параметрам девушку Анну. Его не смущает, что потенциальная модель знает несколько языков, но торгует при этом матрёшками, и вот уже Анна летит в Париж и приступает к работе. Но её настоящая работа заключается не в позировании перед фотокамерами - хрупкая девушка работает на КГБ и должна убирать людей по приказу Москвы.
Мировая премьера: 19 июня 2019

Качество: BDRip 1080p Rip by DD2D3
Исходник: BDRemux by SeLeZeN 1080p
Формат: MKV
Видео: V_MPEGH/ISO/HEVC, 1920x804 (2.40:1), 4003 kbps, 59,940 fps, 0,043 bpp
Аудио: русский / AC3 / 5.1 / 48 kHz / 384 kbps / ||
Навигация по главам: есть


General
Unique ID : 190874391776524222594949862333016478490 (0x8F991217AF77E50EB3A3A30461C0931A)
Complete name : D:\Анна - Anna (2019) BDRip - HEVC 1080p 10 bit 60 FPS.mkv
Format : Matroska
Format version : Version 4
File size : 3.65 GiB
Duration : 1 h 59 min
Overall bit rate : 4 391 kb/s
Movie name : Rip by DD2D3
Encoded date : UTC 2019-11-06 14:14:14
Writing application : mkvmerge v10.0.0 ('To Drown In You') 32bit
Writing library : libebml v1.3.4 + libmatroska v1.4.5
Attachments : poster

Video
ID : 1
Format : HEVC
Format/Info : High Efficiency Video Coding
Format profile : Main 10@L4.1@Main
Codec ID : V_MPEGH/ISO/HEVC
Duration : 1 h 58 min
Bit rate : 4 003 kb/s
Width : 1 920 pixels
Height : 804 pixels
Display aspect ratio : 2.40:1
Frame rate mode : Constant
Frame rate : 59.940 (60000/1001) FPS
Color space : YUV
Chroma subsampling : 4:2:0
Bit depth : 10 bits
Bits/(Pixel*Frame) : 0.043
Stream size : 3.33 GiB (91%)
Writing library : x265 2.3+33-0b7d54dbb71a87a0:[Windows][MSVC 1800][64 bit] 10bit: KG7x [x265.ru]
Encoding settings : cpuid=1173503 / frame-threads=2 / numa-pools=4 / wpp / no-pmode / no-pme / no-psnr / no-ssim / log-level=2 / input-csp=1 / input-res=1920x804 / interlace=0 / total-frames=427918 / level-idc=41 / high-tier=1 / uhd-bd=0 / ref=3 / no-allow-non-conformance / no-repeat-headers / annexb / no-aud / no-hrd / info / hash=0 / no-temporal-layers / open-gop / min-keyint=25 / keyint=250 / bframes=4 / b-adapt=2 / b-pyramid / bframe-bias=0 / rc-lookahead=20 / lookahead-slices=5 / scenecut=40 / no-intra-refresh / ctu=64 / min-cu-size=8 / no-rect / no-amp / max-tu-size=32 / tu-inter-depth=1 / tu-intra-depth=1 / limit-tu=0 / rdoq-level=0 / dynamic-rd=0.00 / no-ssim-rd / signhide / no-tskip / nr-intra=0 / nr-inter=0 / no-constrained-intra / strong-intra-smoothing / max-merge=2 / limit-refs=3 / no-limit-modes / me=1 / subme=2 / merange=57 / temporal-mvp / weightp / no-weightb / no-analyze-src-pics / deblock=0:0 / no-sao / no-sao-non-deblock / rd=3 / no-early-skip / no-rskip / no-fast-intra / no-tskip-fast / no-cu-lossless / no-b-intra / rdpenalty=0 / psy-rd=4.00 / psy-rdoq=0.00 / no-rd-refine / analysis-mode=0 / no-lossless / cbqpoffs=0 / crqpoffs=0 / rc=abr / bitrate=4000 / qcomp=0.60 / qpstep=1 / stats-write=0 / stats-read=2 / cplxblur=20.0 / qblur=0.5 / ipratio=1.10 / pbratio=1.00 / aq-mode=0 / aq-strength=0.00 / no-cutree / zone-count=0 / no-strict-cbr / qg-size=64 / rc-grain / qpmax=69 / qpmin=0 / sar=1 / overscan=0 / videoformat=5 / range=0 / colorprim=2 / transfer=2 / colormatrix=2 / chromaloc=0 / display-window=0 / max-cll=0,0 / min-luma=0 / max-luma=1023 / log2-max-poc-lsb=8 / vui-timing-info / vui-hrd-info / slices=1 / opt-qp-pps / opt-ref-list-length-pps / no-multi-pass-opt-rps / scenecut-bias=0.05 / no-opt-cu-delta-qp / no-aq-motion / no-hdr / no-hdr-opt / refine-level=5 / no-limit-sao
Default : Yes
Forced : No

Audio
ID : 2
Format : AC-3
Format/Info : Audio Coding 3
Commercial name : Dolby Digital
Codec ID : A_AC3
Duration : 1 h 59 min
Bit rate mode : Constant
Bit rate : 384 kb/s
Channel(s) : 6 channels
Channel layout : L R C LFE Ls Rs
Sampling rate : 48.0 kHz
Frame rate : 31.250 FPS (1536 SPF)
Bit depth : 16 bits
Compression mode : Lossy
Stream size : 327 MiB (9%)
Title : iTunes
Language : Russian
Service kind : Complete Main
Default : Yes
Forced : Yes

Menu
00:00:00.000 : en:00:00:00.000
00:06:14.291 : en:00:06:14.291
00:16:42.209 : en:00:16:42.209
00:21:09.185 : en:00:21:09.185
00:31:16.708 : en:00:31:16.708
00:35:25.832 : en:00:35:25.832
00:45:57.338 : en:00:45:57.338
00:53:43.262 : en:00:53:43.262
01:00:52.732 : en:01:00:52.732
01:08:39.907 : en:01:08:39.907
01:14:24.084 : en:01:14:24.084
01:24:15.133 : en:01:24:15.133
01:28:36.519 : en:01:28:36.519
01:36:36.582 : en:01:36:36.582
01:46:36.390 : en:01:46:36.390
01:51:04.783 : en:01:51:04.783
скриншот  скриншот  скриншот  скриншот  

© Оформление by DD2D3 piratbit.xyz



Скачать Анна через торрент https://funkyimg.com/i/2YvE3.jpg Скачать фильм Анна через торрент бесплантно в хорошем качестве Описание: Москва, конец 1980-х. Скаут французского модельного агентства находит на Измайловском рынке подходящую ему по всем параметрам ... 10 10 7
Торрент: Зарегистрирован [2019-11-06 15:28] · скачан: 195 раз
Статус: √ проверено
Размер: 3.65 GB
Как cкачать? Как скачать Анна через торрент | qTorrent

% Раздел Тема Автор DL S | L
Порно фильмы с сюжетом [ 734 MB ] Оборки юбочки Анны Брюмер / La Doppia Identita di Anna Brumer / The Double Identity Anna Brumer [2006 Feature Foreign DVDRip 464p] sheker187 Скачать
3 | 0
Фильмы [HD 720p, 1080p] (Хороший звук DUB, MVO) [ 4.63 GB ] Проклятие Аннабель / Annabelle [2014 BDRip 720p - / ] _KaisiK_ Скачать
1 | 0
Зарубежные сериалы [ 5.27 GB ] Хроники Шаннары / The Shannara Chronicles / Сезон: 1 / Серии 1-10 из 10 [2016 WEB-DLRip] MVO NewStudio diletant Скачать
1 | 0
Зарубежные сериалы [ 6.14 GB ] Хроники Шаннары / The Shannara Chronicles / Сезон: 1 / Серии 10 из 10 [2016 WEB-DLRip] MVO LostFilm Alex_E Скачать
1 | 0
Зарубежные сериалы [ 5.45 GB ] Хроники Шаннары / The Shannara Chronicles / Cезон 1 / Cерии 1-10 из 10 [2016 WEB-DLRip] MVO [BaibaKo] nikola120 Скачать
1 | 0
Космос [ 9.51 GB ] Ангар-1: Папки НЛО / Hangar 1: The UFO Files [2014-2015 Документальный ТВ-сериал TVRip] Sub Rus кэп Скачать
2 | 0
Паки русских роликов [ 116.6 GB ] Kristall Rush - Анна Кузнецова / [2015 Straight All Sex Anal DP SATRip] Pir@tya2010 Скачать
1 | 0


>> Переходим по ссылке <<
Автоматически подгузится скрипт который настроит ваш браузер на выигрыш!!
После настройки браузера вероятность выигрыша увеличется в 4.1-4,6 раза.
В течение 6 секунд вам откроется настроенный интерфейс казино, с повышенной вероятностью выигрыша.






Отзывы и комментарии о схеме читаем и пишем здесь: ---> Отзывы и комментарии о схеме

Новые благодарочки в телеграм довольных пользователей:
скриншот   скриншот   скриншот   скриншот   скриншот

13-11-2019 04:17 Анна Скачать торрент  

Шлак. Как игра You are empty.piratbit.xyz



    Дорогой пользователь! Огромная просьба, поблагодарите релизера, оцените раздачу и оставьте свои комментарий, если Вы скачали Анна через торрент бесплатно! Внесите свою лепту в развитие PiratBit!
    Комментировать посты могут только пользователи прошедшие не сложную регистрацию
    Показать сообщения:    

    Анна через торрент
    Скачать бесплатно Анна
    Анна скачать торрент
    Анна смотреть онлайн
    Cкачать фильм Анна бесплатно
    Анна скачать торрент в хорошем качестве
    Анна смотреть онлайн бесплатно в хорошем качестве


    Вы не можете начинать темы
    Вы не можете отвечать на сообщения
    Вы не можете редактировать свои сообщения
    Вы не можете удалять свои сообщения
    Вы не можете голосовать в опросах
    Вы не можете прикреплять файлы к сообщениям
    Вы можете скачивать файлы