новый адрес
Мега распродажа FORZA HORIZON 4 ULTIMATE+ВСЕ DLC+ОНЛАЙН всего за 499р. 349 руб. (супер цена). Внимание количество ограничено!!!

iTunes

1+1

iTunes

мы

iTunes

1

iTunes

Чернобыль

iTunes

Ральф против интернета

Лицензия

ПШазам

Лицензия

Игра престолов

Лицензия

30
pack

ВАЖНО

!!Акция!!

Alien_RageХит недели

RePack

Resident Evil 21

ИГРА 18+

pack

RePack

Metro:Exodus

!!Акция!!

Alien_Rage

RePack

fifa19

RePack

Assassins Creed: Odyssey

RePack

NEED FOR SPEED™ PAYBACK

3 сезон

9 сезон

Бесстыжие 9 сезон

Все сериалы

все сериалы на PB.wtf

RePack

FAR CRY 5
Ребята, катастрофически не хватает 1900р. для оплаты серверов за Октябрь (всвязи с блокировками трафик упал в 3 раза), 1-2р., выручайте.
  

Эллиот / Elliot the Littlest Reindeer (Дженнифер Весткотт) [2018, Мультфильм, семейный, BD Remux 1080p] DUB [iTunes] piratbit.xyz

Эллиот через торрент piratbit.xyz

Размер: 17.09 GB | Добавлен: 23 д. назад | Торрент скачан:26 раз
Скачать  

26-10-2019 08:39 Эллиот Скачать торрент  

Эллиот / Elliot the Littlest Reindeer
Год выпуска: 2018
Страна: Канада
Жанр: Мультфильм, семейный
Продолжительность: 01:29:48
Перевод: Дублированный | iTunes
Субтитры: отсутствуют

Режиссер: Дженнифер Весткотт

rating

В ролях: Джош Хатчерсон, Морена Баккарин, Джон Клиз, Мартин Шорт, Кристофер Жако, Джефф Данэм, Джин Юн, Саманта Би, Джордж Бьюза, Роберт Тинклер

Описание: Знакомьтесь: Эллиот — маленькая лошадка с большой мечтой. Ему так хочется занять место одного из северных оленей в упряжке Санты и дарить детям радость! У него есть всего 3 дня, чтобы доказать окружающим, что он достоин стать одним из них, даже если рогами не вышел! Ведь если чего-то хочешь по-настоящему, то чудеса случаются непременно!

Качество: BD Remux 1080p
Формат: MKV

Видео: MPEG-4 AVC, 1920x1080, 23.0 Mbit/s, 23.976 fps
Аудио#1: 48 kHz, AC3, 5.1, 384 Kbps | iTunes | RUS |
Аудио#2: 48 kHz, DTS-HD MA, 5.1, 3851 Kbps | Оригинал | ENG |
скриншот  скриншот  скриншот  скриншот  скриншот  

General
Unique ID : 109541264878440511727940683982267411107 (0x5268E155EFDDE10DACB43215374EEAA3)
Complete name : D:Video111Elliot.The.Littlest.Reindeer.2018.BDREMUX.1080p.seleZen.mkv
Format : Matroska
Format version : Version 4
File size : 17.1 GiB
Duration : 1 h 29 min
Overall bit rate mode : Variable
Overall bit rate : 27.2 Mb/s
Movie name : Elliot The Littlest Reindeer 2018
Encoded date : UTC 2019-10-26 08:24:13
Writing application : mkvmerge v22.0.0 ('At The End Of The World') 64-bit
Writing library : libebml v1.3.5 + libmatroska v1.4.8

Video
ID : 1
Format : AVC
Format/Info : Advanced Video Codec
Format profile : High@L4.1
Format settings : CABAC / 3 Ref Frames
Format settings, CABAC : Yes
Format settings, Reference : 3 frames
Codec ID : V_MPEG4/ISO/AVC
Duration : 1 h 29 min
Bit rate mode : Variable
Bit rate : 23.0 Mb/s
Maximum bit rate : 37.0 Mb/s
Width : 1 920 pixels
Height : 1 080 pixels
Display aspect ratio : 16:9
Frame rate mode : Constant
Frame rate : 23.976 (24000/1001) FPS
Color space : YUV
Chroma subsampling : 4:2:0
Bit depth : 8 bits
Scan type : Progressive
Bits/(Pixel*Frame) : 0.463
Stream size : 14.4 GiB (84%)
Language : English
Default : Yes
Forced : No

Audio #1
ID : 2
Format : AC-3
Format/Info : Audio Coding 3
Commercial name : Dolby Digital
Codec ID : A_AC3
Duration : 1 h 29 min
Bit rate mode : Constant
Bit rate : 384 kb/s
Channel(s) : 6 channels
Channel layout : L R C LFE Ls Rs
Sampling rate : 48.0 kHz
Frame rate : 31.250 FPS (1536 SPF)
Bit depth : 16 bits
Compression mode : Lossy
Stream size : 247 MiB (1%)
Title : iTunes
Language : Russian
Service kind : Complete Main
Default : Yes
Forced : Yes

Audio #2
ID : 3
Format : DTS XLL
Format/Info : Digital Theater Systems
Commercial name : DTS-HD Master Audio
Codec ID : A_DTS
Duration : 1 h 29 min
Bit rate mode : Variable
Bit rate : 3 851 kb/s
Channel(s) : 6 channels
Channel layout : C L R Ls Rs LFE
Sampling rate : 48.0 kHz
Frame rate : 93.750 FPS (512 SPF)
Bit depth : 24 bits
Compression mode : Lossless
Stream size : 2.42 GiB (14%)
Title : Original
Language : English
Default : No
Forced : No

Menu
00:00:00.000 : de:00:00:00.000
00:06:45.989 : de:00:06:45.989
00:13:04.200 : de:00:13:04.200
00:21:03.554 : de:00:21:03.554
00:30:10.225 : de:00:30:10.225
00:37:53.938 : de:00:37:53.938
00:45:58.422 : de:00:45:58.422
00:52:16.050 : de:00:52:16.050
01:02:10.060 : de:01:02:10.060
01:10:29.225 : de:01:10:29.225
01:16:19.033 : de:01:16:19.033
01:21:28.634 : de:01:21:28.634

piratbit.xyz



Скачать Эллиот через торрент https://img15.lostpic.net/2019/10/26/c7c8eda492c5b78c1ee78137816fbdf9.jpg Скачать фильм Эллиот через торрент бесплантно в хорошем качестве Описание: Знакомьтесь: Эллиот — маленькая лошадка с большой мечтой. Ему так хочется занять место одного из северных оленей в упряжке Санты ... 10 10 3
Торрент: Зарегистрирован [2019-10-26 08:39] · скачан: 26 раз
Статус: √ проверено
Размер: 17.09 GB
Как cкачать? Как скачать Эллиот через торрент | qTorrent

% Раздел Тема Автор DL S | L
Иностранные мультфильмы [ 1.41 GB ] Эллиот / Elliot the Littlest Reindeer [2018 Мультфильм WEB-DLRip-AVC] bober100 Скачать
3 | 0
Иностранные мультфильмы [ 1.46 GB ] Эллиот / Elliot the Littlest Reindeer [2018 Мультфильм BDRip] bober100 Скачать
3 | 0
Зарубежные Мультфильмы (WEB-DL 720p, 1080p) [ 3.07 GB ] Эллиот / Elliot the Littlest Reindeer [2018 Мультфильм WEB-DL 1080p] bober100 Скачать
2 | 0


>> Регистрируемся здесь <<






Отзывы и комментарии о схеме читаем и пишем здесь: ---> Отзывы и комментарии о схеме

Новые благодарочки в телеграм довольных пользователей:
скриншот   скриншот   скриншот   скриншот   скриншот
    Дорогой пользователь! Огромная просьба, поблагодарите релизера, оцените раздачу и оставьте свои комментарий, если Вы скачали Эллиот через торрент бесплатно! Внесите свою лепту в развитие PiratBit!
    Комментировать посты могут только пользователи прошедшие не сложную регистрацию
    Показать сообщения:    

    Эллиот через торрент
    Скачать бесплатно Эллиот
    Эллиот скачать торрент
    Эллиот смотреть онлайн
    Cкачать фильм Эллиот бесплатно
    Эллиот скачать торрент в хорошем качестве
    Эллиот смотреть онлайн бесплатно в хорошем качестве


    Вы не можете начинать темы
    Вы не можете отвечать на сообщения
    Вы не можете редактировать свои сообщения
    Вы не можете удалять свои сообщения
    Вы не можете голосовать в опросах
    Вы не можете прикреплять файлы к сообщениям
    Вы можете скачивать файлы