новый адрес пиратбит piratbit
Мега распродажа FORZA HORIZON 4 ULTIMATE+ВСЕ DLC+ОНЛАЙН всего за 499р. 349 руб. (супер цена). Внимание количество ограничено!!!

iTunes

1+1

iTunes

мы

iTunes

1

iTunes

Чернобыль

iTunes

Ральф против интернета

Лицензия

ПШазам

Лицензия

Игра престолов

Лицензия

30
pack

ВАЖНО

!!Акция!!

Alien_RageХит недели

RePack

Resident Evil 21

ИГРА 18+

pack

RePack

Metro:Exodus

!!Акция!!

Alien_Rage

RePack

fifa19

RePack

Assassins Creed: Odyssey

RePack

NEED FOR SPEED™ PAYBACK

3 сезон

9 сезон

Бесстыжие 9 сезон

Все сериалы

все сериалы на PB.wtf

RePack

FAR CRY 5
Ребята, катастрофически не хватает 1900р. для оплаты серверов за Октябрь (всвязи с блокировками трафик упал в 3 раза), 1-2р., выручайте.
  

Страшилы / The Frighteners (Питер Джексон) [1996, ужасы, фэнтези, комедия, WEB-DL 1080p] [Open matte] 2xMVO+2xDVO+5xAVO piratbit.xyz

Страшилы через торрент piratbit.xyz

Раздают: 2 [ 0 KB/s ]
Размер: 15.56 GB | Добавлен: 23 д. назад | Торрент скачан:67 раз
Скачать  

19-10-2019 18:43 Страшилы Скачать торрент  

Страшилы / The Frighteners
Год выпуска: 1996
Страна: Новая Зеландия, США
Жанр: ужасы, фэнтези, комедия
Продолжительность: 01:49:56
Перевод: Профессиональный (многоголосый), Профессиональный (двухголосый, закадровый), Авторский (одноголосый, закадровый)
Субтитры: Russian, English (SDH, Blu-ray)

Режиссер: Питер Джексон

rating

В ролях:

Майкл Дж. Фокс (Frank Bannister), Трини Альварадо (Dr. Lucy Lynskey), Питер Добсон (Ray Lynskey), Джон Эстин (The Judge), Джеффри Комбс (Milton Dammers), Ди Уоллес-Стоун (Patricia Ann Bradley), Джейк Бьюзи (Johnny Bartlett), Чи МакБрайд (Cyrus), Джим Файф (Stuart, Bannister's Ghostly Assistant), Трой Эванс (Sheriff Walt Perry), Джулианна МакКарти (Old Lady Bradley), Р. Ли Эрми (Sgt. Hiles)
Описание: После смерти жены в автомобильной катастрофе герой обнаруживает, что может общаться с мёртвыми. За скромное вознаграждение он успешно избавляет дома от призраков, которых сам предварительно наслал. Однажды герой сталкивается со страшным противником и оказывается единственным, кто способен остановить злобного духа и спасти живых и мёртвых.

Качество: WEB-DL 1080p | Open Matte
Формат: MKV

Видео: 1920x1080 at 23.976 fps, MPEG-4 AVC, ~12500 kbps avg
Аудио#1: Russian: 48 kHz, DTS, 3/2 (L,C,R,l,r) + LFE ch, ~768 kbps avg |Двухголосый закадровый, Премьер Видео Фильм|
Аудио#2: Russian: 48 kHz, DTS, 3/2 (L,C,R,l,r) + LFE ch, ~1509 kbps avg |Двухголосый закадровый, П.Гланц и И.Королёва|
Аудио#3: Russian: 48 kHz, AC3, 3/2 (L,C,R,l,r) + LFE ch, ~384 kbps avg |Многоголосый закадровый, Позитив-Мультимедиа|
Аудио#4: Russian: 48 kHz, AC3, 2/0 (L,R) ch, ~192 kbps avg |Многоголосый закадровый, СТС|
Аудио#5: Russian: 48 kHz, DTS, 3/2 (L,C,R,l,r) + LFE ch, ~1509 kbps avg |Авторский, Ю.Живов|
Аудио#6: Russian: 48 kHz, FLAC, 2/0 (L,R) ch, ~761 kbps avg |Авторский, М.Латышев|
Аудио#7: Russian: 48 kHz, AC3, 2/0 (L,R) ch, ~160 kbps avg |Авторский, А. Гаврилов [ранний]|
Аудио#8: Russian: 48 kHz, AC3, 2/0 (L,R) ch, ~160 kbps avg |Авторский, С.Визгунов|
Аудио#9: Russian: 48 kHz, AC3, 2/0 (L,R) ch, ~192 kbps avg |Авторский, Лёша-прапорщик|
Аудио#10: English: 48 kHz, DTS, 3/2 (L,C,R,l,r) + LFE ch, ~1509 kbps avg |Blu-ray|
Аудио#11: English: 48 kHz, E-AC3, 3/2 (L,C,R,l,r) + LFE ch, ~640 kbps avg |Amazon|
скриншот  скриншот  скриншот  скриншот  

Общее
Уникальный идентификатор : 192457042722754879606836497356703157111 (0x90C9E0CF03D099368F3B168AA1F04B77)
Полное имя : The.Frighteners.1996.Theatrical.Cut.Open.Matte.1080p.WEB-DL.9xRus.Eng.TeamHD.mkv
Формат : Matroska
Версия формата : Version 4 / Version 2
Размер файла : 15,6 Гбайт
Продолжительность : 1 ч. 49 м.
Режим общего битрейта : Переменный
Общий поток : 20,3 Мбит/сек
Название фильма : The.Frighteners.1996.Theatrical.Cut.Open.Matte.1080p.WEB-DL.9xRus.Eng.TeamHD-spartanec163
Дата кодирования : UTC 2018-12-22 16:51:22
Программа кодирования : mkvmerge v8.3.0 ('Over the Horizon') 64bit
Библиотека кодирования : libebml v1.3.1 + libmatroska v1.4.2

Видео
Идентификатор : 1
Формат : AVC
Формат/Информация : Advanced Video Codec
Профиль формата : High@L4.0
Параметр CABAC формата : Да
Параметр ReFrames формата : 4 кадра
Идентификатор кодека : V_MPEG4/ISO/AVC
Продолжительность : 1 ч. 49 м.
Ширина : 1920 пикселей
Высота : 1080 пикселей
Соотношение сторон : 16:9
Режим частоты кадров : Постоянный
Частота кадров : 23,976 кадра/сек
Цветовое пространство : YUV
Субдискретизация насыщенности : 4:2:0
Битовая глубина : 8 бит
Тип развёртки : Прогрессивная
Заголовок : WEB-DL 1080p (Amazon)
Язык : English
Default : Да
Forced : Нет
Основные цвета : BT.709
Характеристики трансфера : BT.709
Коэффициенты матрицы : BT.709

Аудио #1
Идентификатор : 2
Формат : DTS
Формат/Информация : Digital Theater Systems
Режим : 16
Параметр Endianness формата : Big
Идентификатор кодека : A_DTS
Продолжительность : 1 ч. 49 м.
Вид битрейта : Постоянный
Битрейт : 768 Кбит/сек
Каналы : 6 каналов
Расположение каналов : Front: L C R, Side: L R, LFE
Частота : 48,0 КГц
Битовая глубина : 24 бит
Метод сжатия : С потерями
Размер потока : 604 Мбайт (4%)
Заголовок : DTS 5.1 768Kbps (Профессиональный, двухголосый - Премьер Видео Фильм / BluRay)
Язык : Russian
Default : Да
Forced : Нет

Аудио #2
Идентификатор : 3
Формат : DTS
Формат/Информация : Digital Theater Systems
Режим : 16
Параметр Endianness формата : Big
Идентификатор кодека : A_DTS
Продолжительность : 1 ч. 49 м.
Вид битрейта : Постоянный
Битрейт : 1510 Кбит/сек
Каналы : 6 каналов
Расположение каналов : Front: L C R, Side: L R, LFE
Частота : 48,0 КГц
Битовая глубина : 24 бит
Метод сжатия : С потерями
Размер потока : 1,16 Гбайт (7%)
Заголовок : DTS 5.1 1510Kbps (Профессиональный, двухголосый - П. Гланц и И. Королёва)
Язык : Russian
Default : Нет
Forced : Нет

Аудио #3
Идентификатор : 4
Формат : AC-3
Формат/Информация : Audio Coding 3
Расширение режима : CM (complete main)
Параметр Endianness формата : Big
Идентификатор кодека : A_AC3
Продолжительность : 1 ч. 49 м.
Вид битрейта : Постоянный
Битрейт : 384 Кбит/сек
Каналы : 6 каналов
Расположение каналов : Front: L C R, Side: L R, LFE
Частота : 48,0 КГц
Битовая глубина : 16 бит
Метод сжатия : С потерями
Размер потока : 302 Мбайт (2%)
Заголовок : AC3 5.1 384Kbps (Профессиональный, многоголосый - Позитив-Мультимедиа)
Язык : Russian
Default : Нет
Forced : Нет

Аудио #4
Идентификатор : 5
Формат : AC-3
Формат/Информация : Audio Coding 3
Расширение режима : CM (complete main)
Параметр Endianness формата : Big
Идентификатор кодека : A_AC3
Продолжительность : 1 ч. 49 м.
Вид битрейта : Постоянный
Битрейт : 192 Кбит/сек
Каналы : 2 канала
Расположение каналов : Front: L R
Частота : 48,0 КГц
Битовая глубина : 16 бит
Метод сжатия : С потерями
Размер потока : 151 Мбайт (1%)
Заголовок : AC3 2.0 192Kbps (Профессиональный, многоголосый - СТС)
Язык : Russian
Default : Нет
Forced : Нет

Аудио #5
Идентификатор : 6
Формат : DTS
Формат/Информация : Digital Theater Systems
Режим : 16
Параметр Endianness формата : Big
Идентификатор кодека : A_DTS
Продолжительность : 1 ч. 49 м.
Вид битрейта : Постоянный
Битрейт : 1509 Кбит/сек
Каналы : 6 каналов
Расположение каналов : Front: L C R, Side: L R, LFE
Частота : 48,0 КГц
Битовая глубина : 24 бит
Метод сжатия : С потерями
Размер потока : 1,16 Гбайт (7%)
Заголовок : DTS 5.1 1509Kbps (Авторский, одноголосый - Ю. Живов)
Язык : Russian
Default : Нет
Forced : Нет

Аудио #6
Идентификатор : 7
Формат : FLAC
Формат/Информация : Free Lossless Audio Codec
Идентификатор кодека : A_FLAC
Продолжительность : 1 ч. 49 м.
Вид битрейта : Переменный
Каналы : 2 канала
Частота : 48,0 КГц
Битовая глубина : 16 бит
Заголовок : FLAC 2.0 761Kbps (Авторский, одноголосый - М. Латышев)
Библиотека кодирования : libFLAC 1.2.1 (UTC 2007-09-17)
Язык : Russian
Default : Нет
Forced : Нет

Аудио #7
Идентификатор : 8
Формат : AC-3
Формат/Информация : Audio Coding 3
Расширение режима : CM (complete main)
Параметр Endianness формата : Big
Идентификатор кодека : A_AC3
Продолжительность : 1 ч. 49 м.
Вид битрейта : Постоянный
Битрейт : 160 Кбит/сек
Каналы : 2 канала
Расположение каналов : Front: L R
Частота : 48,0 КГц
Битовая глубина : 16 бит
Метод сжатия : С потерями
Размер потока : 126 Мбайт (1%)
Заголовок : AC3 2.0 160Kbps (Авторский, одноголосый - А. Гаврилов (ранний))
Язык : Russian
Default : Нет
Forced : Нет

Аудио #8
Идентификатор : 9
Формат : AC-3
Формат/Информация : Audio Coding 3
Расширение режима : CM (complete main)
Параметр Endianness формата : Big
Идентификатор кодека : A_AC3
Продолжительность : 1 ч. 49 м.
Вид битрейта : Постоянный
Битрейт : 160 Кбит/сек
Каналы : 2 канала
Расположение каналов : Front: L R
Частота : 48,0 КГц
Битовая глубина : 16 бит
Метод сжатия : С потерями
Размер потока : 126 Мбайт (1%)
Заголовок : AC3 2.0 160Kbps (Авторский, одноголосый - С. Визгунов)
Язык : Russian
Default : Нет
Forced : Нет

Аудио #9
Идентификатор : 10
Формат : AC-3
Формат/Информация : Audio Coding 3
Расширение режима : CM (complete main)
Параметр Endianness формата : Big
Идентификатор кодека : A_AC3
Продолжительность : 1 ч. 49 м.
Вид битрейта : Постоянный
Битрейт : 192 Кбит/сек
Каналы : 2 канала
Расположение каналов : Front: L R
Частота : 48,0 КГц
Битовая глубина : 16 бит
Метод сжатия : С потерями
Размер потока : 151 Мбайт (1%)
Заголовок : AC3 2.0 192Kbps (Одноголосый - Лёша прапорщик)
Язык : Russian
Default : Нет
Forced : Нет

Аудио #10
Идентификатор : 11
Формат : DTS
Формат/Информация : Digital Theater Systems
Режим : 16
Параметр Endianness формата : Big
Идентификатор кодека : A_DTS
Продолжительность : 1 ч. 49 м.
Вид битрейта : Постоянный
Битрейт : 1509 Кбит/сек
Каналы : 6 каналов
Расположение каналов : Front: L C R, Side: L R, LFE
Частота : 48,0 КГц
Битовая глубина : 24 бит
Метод сжатия : С потерями
Размер потока : 1,16 Гбайт (7%)
Заголовок : DTS 5.1 1509Kbps (Оригинал - BluRay)
Язык : English
Default : Нет
Forced : Нет

Аудио #11
Идентификатор : 12
Формат : E-AC-3
Формат/Информация : Audio Coding 3
Параметр Endianness формата : Big
Идентификатор кодека : A_EAC3
Продолжительность : 1 ч. 49 м.
Вид битрейта : Постоянный
Битрейт : 640 Кбит/сек
Каналы : 6 каналов
Расположение каналов : Front: L C R, Side: L R, LFE
Частота : 48,0 КГц
Метод сжатия : С потерями
Размер потока : 503 Мбайт (3%)
Заголовок : E-AC3 5.1 640Kbps (Оригинал - Amazon)
Язык : English
Default : Нет
Forced : Нет

Текст #1
Идентификатор : 13
Формат : UTF-8
Идентификатор кодека : S_TEXT/UTF8
Идентификатор кодека/Информация : UTF-8 Plain Text
Язык : Russian
Default : Нет
Forced : Нет

Текст #2
Идентификатор : 14
Формат : UTF-8
Идентификатор кодека : S_TEXT/UTF8
Идентификатор кодека/Информация : UTF-8 Plain Text
Заголовок : SDH, BluRay
Язык : English
Default : Нет
Forced : Нет

Меню
00:00:00.000 : en:FBI warning
00:00:12.000 : en:MPPA rating
00:00:18.000 : en:Studio logos
00:01:04.000 : en:Opening credits
00:03:28.000 : en:Magda orders Steve to write a story on the murders in the city
00:06:11.000 : en:Frank agitates Ray by destroying his lawn accidentally, Lynskeys' lawn
00:07:59.000 : en:Mrs. Bradley ignores Lucy's suggestion & warns her about Patricia, Bradleys' house
00:10:06.000 : en:Lucy spots Patricia in the news story about Johnny
00:14:13.000 : en:Frank sees a number on Ray's forehead, Lynskeys' house
00:18:10.000 : en:Frank asks Cyrus & Stuart about the numbers on Ray's forehead, Frank's house
00:20:12.000 : en:Judge shows his frustration towards Frank, Frank's study
00:23:18.000 : en:Mrs. Waterhouse figures out Frank's money-making trick, Waterhouse residence
00:25:34.000 : en:Ray seeks Frank's help, street
00:28:37.000 : en:Sgt. Hiles is angry at Frank for helping the dead in his area, cemetery
00:31:31.000 : en:Frank's help to Ray confuses Walt
00:33:55.000 : en:Frank acts as a mediator between Lucy & Ray, restaurant
00:37:45.000 : en:Frank witnesses a spirit stabbing a man after marking him with numbers, bathroom
00:40:09.000 : en:Sheriff Perry & Dammers question Lucy about Frank, police station
00:43:31.000 : en:Dammers makes a revelation about Frank's life, police station & flashback
00:47:12.000 : en:The spirit marks Magda at Steve's funeral, hall
00:52:40.000 : en:Frank remains helpless & history repeats itself, Holloway Road
00:54:47.000 : en:Lucy is concerned about Frank, police station
00:56:21.000 : en:Frank explains his innocence to Dammers by revealing his truth, interrogation room
01:01:10.000 : en:Lucy visits Patricia after hearing her mother's message on Frank's telephone, Frank's house & Bradleys' house
01:05:09.000 : en:Lucy sneaks out of the Bradleys' house, Bradley residence
01:07:50.000 : en:Frank notices the numbers on Lucy's forehead, prison
01:12:03.000 : en:Lucy helps Frank find the spirit, freezing room
01:14:17.000 : en:Frank leaves his body & Dammers intrudes in the experiment, lab
01:16:37.000 : en:Dammers imagines he has powers
01:20:59.000 : en:Frank figures out the spirit's identity & asks Lucy to save Patricia, cemetery
01:23:57.000 : en:Johnny turns Patricia against Lucy, Bradleys' living room
01:27:30.000 : en:Lucy & Frank find Johnny's ashes, Bradleys' house
01:29:33.000 : en:Frank enters the other world & figures out how to destroy Johnny's powers, house & hospital
01:31:28.000 : en:Dammers traps Lucy
01:35:01.000 : en:Frank discovers Debra's killer, hospital & flashback
01:38:38.000 : en:Patricia shows Frank no mercy, hospital
01:39:48.000 : en:Frank leads Johnny & Patricia to hell, sky
01:42:32.000 : en:Debra Cyrus & Stuart send Frank back on Earth, sky
01:44:14.000 : en:Frank finds someone to live in his dream house with, cliff
01:45:54.000 : en:Closing credits

piratbit.xyz



Скачать Страшилы через торрент https://b.radikal.ru/b20/1904/71/293188ede11e.png Скачать фильм Страшилы через торрент бесплантно в хорошем качестве Описание: После смерти жены в автомобильной катастрофе герой обнаруживает, что может общаться с мёртвыми. За скромное вознаграждение он ... 8.5 10 6
Торрент: Зарегистрирован [2019-10-19 18:43] · скачан: 67 раз
Статус: √ проверено
Размер: 15.56 GB
Как cкачать? Как скачать Страшилы через торрент | qTorrent


>> Регистрируемся здесь <<






Отзывы и комментарии о схеме читаем и пишем здесь: ---> Отзывы и комментарии о схеме

Новые благодарочки в телеграм довольных пользователей:
скриншот   скриншот   скриншот   скриншот   скриншот

20-10-2019 04:47 Страшилы Скачать торрент  

Эх! Отличный фильм!piratbit.xyz



22-10-2019 09:51 Страшилы Скачать торрент  

Любимый фильм прошлых лет.piratbit.xyz



    Дорогой пользователь! Огромная просьба, поблагодарите релизера, оцените раздачу и оставьте свои комментарий, если Вы скачали Страшилы через торрент бесплатно! Внесите свою лепту в развитие PiratBit!
    Комментировать посты могут только пользователи прошедшие не сложную регистрацию
    Показать сообщения:    

    Страшилы через торрент
    Скачать бесплатно Страшилы
    Страшилы скачать торрент
    Страшилы смотреть онлайн
    Cкачать фильм Страшилы бесплатно
    Страшилы скачать торрент в хорошем качестве
    Страшилы смотреть онлайн бесплатно в хорошем качестве


    Вы не можете начинать темы
    Вы не можете отвечать на сообщения
    Вы не можете редактировать свои сообщения
    Вы не можете удалять свои сообщения
    Вы не можете голосовать в опросах
    Вы не можете прикреплять файлы к сообщениям
    Вы можете скачивать файлы