новый адрес пиратбит piratbit
Мега распродажа FORZA HORIZON 4 ULTIMATE+ВСЕ DLC+ОНЛАЙН всего за 499р. 349 руб. (супер цена). Внимание количество ограничено!!!

iTunes

1+1

iTunes

мы

iTunes

1

iTunes

Чернобыль

iTunes

Ральф против интернета

Лицензия

ПШазам

Лицензия

Игра престолов

Лицензия

30
pack

ВАЖНО

!!Акция!!

Alien_RageХит недели

RePack

Resident Evil 21

ИГРА 18+

pack

RePack

Metro:Exodus

!!Акция!!

Alien_Rage

RePack

fifa19

RePack

Assassins Creed: Odyssey

RePack

NEED FOR SPEED™ PAYBACK

3 сезон

9 сезон

Бесстыжие 9 сезон

Все сериалы

все сериалы на PB.wtf

RePack

FAR CRY 5
Ребята, катастрофически не хватает 1900р. для оплаты серверов за Октябрь (всвязи с блокировками трафик упал в 3 раза), 1-2р., выручайте.
  

Сверхъестественное / Supernatural / Сезон: 15 / Серии: 1-3 из 20 (Роберт Сингер) [2019, Ужасы, фэнтези, триллер, драма, детектив, WEB-DL 1080p] MVO [NewStudio & NovaFilm] piratbit.xyz

Сверхъестественное через торрент piratbit.xyz

Размер: 9.07 GB | Добавлен: 7 д. назад | Торрент скачан:6 раз
Скачать  

17-10-2019 18:35 Сверхъестественное Скачать торрент  

Сверхъестественное | Supernatural
Год выпуска: 2019
Страна: США | Kripke Enterprises, Warner Bros. Television, Wonderland Sound and Vision, Supernatural Films
Жанр: ужасы, фэнтези, триллер, драма, детектив
Продолжительность: ~00:43:00
Перевод: Профессиональный (многоголосый закадровый) | NewStudio & NovaFilm ( с голосами дубляжа)
Субтитры: Русские (Full |«Дикий львёнок»|, английские (Full, SDH)

Режиссёр: Роберт Сингер, Дж. Миллер Тобин, Джеймс Л. Конуэй, Жанно Шварк, Тим Эндрю, Питер Эллис, Филип Сгриккиа, Ким Мэннерс, Дэвид Наттер, Эрик Крипке

В ролях: Джаред Падалеки, Дженсен Эклс, Джим Бивер, Миша Коллинз, Марк Шеппард, Марк Пеллегрино, Женевьев Падалеки, Кэти Кэссиди, Джеймс Патрик Стюарт, Саманта Феррис, Алона Тал, Осрик Чау, Джеффри Дин Морган, Синди Сэмпсон, Митч Пилледжи, Курт Фуллер, Ким Родс, Саманта Смит, Николас Элиа и др.

Описание: Винчестерам предстоит вступить в неравную битву с огромной армией зла и с самим Богом. Но как можно победить Его? У братьев не так много вариантов. Искать помощи у Смерти? Попытаться призвать сестру Бога «Амару» и уговорить её пойти против своего брата? Или нефилим Джек всё-таки сможет выжить и к нему вернутся силы, которые по легендам почти равны силе Всевышнего? Финал сериала даст нам ответы на эти вопросы. Братьям предстоит в очередной раз понять важность семьи и принять ряд очень серьёзных решений.



Качество: WEB-DL 1080p
Формат: MKV

Видео: AVC, 1920x1080 (16:9), 23.976 fps, ~9400 kbps
Аудио №1: AC3, 6 ch, 48 kHz, 384 kbps | NewStudio & NovaFilm
Аудио №2: AC3, 6 ch, 48 kHz, 640 kbps | Original


Реклама: Отсутствует

Исходник: Supernatural.S15.1080p.AMZN.WEB-DL.DDP5.1.x264-NTG
01. Back and to the Future / Назад и в будущее
Постер: itunestv@eniahd
Complete name : D:\Supernatural_(s15)_NewStudio_NovaFilm_1080p\Supernatural.2019.S15E01.Back.and.to.the.Future.1080p.AMZN.WEB-DL.DD5.1.x264-NTG_EniaHD.mkv
Format : Matroska
Format version : Version 2
File size : 3.05 GiB
Duration : 41 min 20 s
Overall bit rate : 10.6 Mb/s
Encoded date : UTC 2019-10-17 16:26:06
Writing application : mkvmerge v4.9.1 ('Ich will') сборка от Jul 11 2011 23:53:15
Writing library : libebml v1.2.1 + libmatroska v1.1.1

Video
ID : 1
Format : AVC
Format/Info : Advanced Video Codec
Format profile : High@L4
Format settings : CABAC / 4 Ref Frames
Format settings, CABAC : Yes
Format settings, Reference : 4 frames
Codec ID : V_MPEG4/ISO/AVC
Duration : 41 min 20 s
Bit rate mode : Constant
Bit rate : 9 342 kb/s
Nominal bit rate : 10 000 kb/s
Width : 1 920 pixels
Height : 1 080 pixels
Display aspect ratio : 16:9
Frame rate mode : Constant
Frame rate : 23.976 (24000/1001) FPS
Color space : YUV
Chroma subsampling : 4:2:0
Bit depth : 8 bits
Scan type : Progressive
Bits/(Pixel*Frame) : 0.188
Stream size : 2.70 GiB (88%)
Title : Release by EniaHD
Default : Yes
Forced : No
Color range : Limited
Color primaries : BT.709
Transfer characteristics : BT.709
Matrix coefficients : BT.709

Audio #1
ID : 2
Format : AC-3
Format/Info : Audio Coding 3
Commercial name : Dolby Digital
Codec ID : A_AC3
Duration : 41 min 20 s
Bit rate mode : Constant
Bit rate : 384 kb/s
Channel(s) : 6 channels
Channel layout : L R C LFE Ls Rs
Sampling rate : 48.0 kHz
Frame rate : 31.250 FPS (1536 SPF)
Bit depth : 16 bits
Compression mode : Lossy
Stream size : 114 MiB (4%)
Title : NewStudio & NovaFilm
Language : Russian
Service kind : Complete Main
Default : Yes
Forced : No

Audio #2
ID : 3
Format : AC-3
Format/Info : Audio Coding 3
Commercial name : Dolby Digital
Codec ID : A_AC3
Duration : 41 min 20 s
Bit rate mode : Constant
Bit rate : 640 kb/s
Channel(s) : 6 channels
Channel layout : L R C LFE Ls Rs
Sampling rate : 48.0 kHz
Frame rate : 31.250 FPS (1536 SPF)
Bit depth : 16 bits
Compression mode : Lossy
Stream size : 189 MiB (6%)
Language : English
Service kind : Complete Main
Default : No
Forced : No

Text #1
ID : 4
Format : UTF-8
Codec ID : S_TEXT/UTF8
Codec ID/Info : UTF-8 Plain Text
Title : Full |Дикий львёнок|
Language : Russian
Default : No
Forced : No

Text #2
ID : 5
Format : UTF-8
Codec ID : S_TEXT/UTF8
Codec ID/Info : UTF-8 Plain Text
Title : Full
Language : English
Default : No
Forced : No

Text #3
ID : 6
Format : UTF-8
Codec ID : S_TEXT/UTF8
Codec ID/Info : UTF-8 Plain Text
Title : SDH
Language : English
Default : No
Forced : No
При каждом добавлении создаётся новый торрент. Чтобы начать докачку новой серии, пользователям необходимо сделать следующее:
- остановить скачивание;
- удалить старый торрент у себя из клиента (старые серии удалять не надо);
- скачать новый торрент и запустить его у себя в клиенте вместо старого, при этом указать клиенту путь в старую папку, куда и должно происходить скачивание новых серий.
piratbit.xyz



Скачать Сверхъестественное через торрент http://pic1.kartinco.top/images/12/4ns3i.jpg Скачать фильм Сверхъестественное через торрент бесплантно в хорошем качестве Описание: Винчестерам предстоит вступить в неравную битву с огромной армией зла и с самим Богом. Но как можно победить Его? У братьев не ... 10 10 3
Торрент: Зарегистрирован [2019-11-05 00:55] · скачан: 6 раз
Статус: √ проверено
Размер: 9.07 GB
Как cкачать? Как скачать Сверхъестественное через торрент | qTorrent

% Раздел Тема Автор DL S | L
Сверхъестественное (Supernatural) [ 2.78 GB ] Сверхъестественное / Supernatural / Сезон: 15 / Серии: 1-3 из 20 [2019 WEB-DLRip-AVC] MVO [NewStudio & NovaFilm] winchester00100010 Скачать
2 | 0
Сверхъестественное (Supernatural) [ 2.2 GB ] Сверхъестественное / Supernatural / Сезон: 15 / Серии: 1-3 из 20 [2019 WEB-DLRip] MVO [NewStudio & NovaFilm] winchester00100010 Скачать
2 | 0
Сверхъестественное (Supernatural) [ 9.21 GB ] Сверхъестественное / Supernatural / Сезон: 15 / Серии: 1-3 из 20 [2019 WEB-DL 1080p] MVO [LostFilm] bober100 Скачать
1 | 1


>> Регистрируемся здесь <<






Отзывы и комментарии о схеме читаем и пишем здесь: ---> Отзывы и комментарии о схеме

Новые благодарочки в телеграм довольных пользователей:
скриншот   скриншот   скриншот   скриншот   скриншот
    Дорогой пользователь! Огромная просьба, поблагодарите релизера, оцените раздачу и оставьте свои комментарий, если Вы скачали Сверхъестественное через торрент бесплатно! Внесите свою лепту в развитие PiratBit!
    Комментировать посты могут только пользователи прошедшие не сложную регистрацию
    Показать сообщения:    

    Сверхъестественное через торрент
    Скачать бесплатно Сверхъестественное
    Сверхъестественное скачать торрент
    Сверхъестественное смотреть онлайн
    Cкачать фильм Сверхъестественное бесплатно
    Сверхъестественное скачать торрент в хорошем качестве
    Сверхъестественное смотреть онлайн бесплатно в хорошем качестве


    Вы не можете начинать темы
    Вы можете отвечать на сообщения
    Вы не можете редактировать свои сообщения
    Вы не можете удалять свои сообщения
    Вы не можете голосовать в опросах
    Вы не можете прикреплять файлы к сообщениям
    Вы можете скачивать файлы