новый адрес
Ссылка на приватное зеркало всего за 1$. Внимание количество ограничено!!!

iTunes

1+1

iTunes

мы

WEB-DL

1

iTunes

Чернобыль

iTunes

Ральф против интернета

Лицензия

ПШазам

Лицензия

Оно 2

Лицензия

30
pack

Вам бонус

ВАЖНО

!!Акция!!

Alien_RageХит недели

RePack

Resident Evil 21

ИГРА 18+

pack

RePack

jed

!!Акция!!

Alien_Rage

RePack

fifa19

RePack

Assassins Creed: Odyssey

RePack

NEED FOR SPEED™ PAYBACK

3 сезон

9 сезон

Бесстыжие 9 сезон

Все сериалы

все сериалы на PB.wtf

RePack

FAR CRY 5
Ребята, катастрофически не хватает 1900р. для оплаты серверов за Октябрь (всвязи с блокировками трафик упал в 3 раза), 1-2р., выручайте.
  

Король Лев / The Lion King (Джон Фавро) [2019, мультфильм, мюзикл, драма, приключения, семейный, BDRip 1080p] DUB [Лицензия] piratbit.xyz

Король Лев через торрент piratbit.xyz

Раздают: 4 [ 10 KB/s ]
Размер: 15.83 GB | Добавлен: 16 д. назад | Торрент скачан:52 раза
Скачать  

11-10-2019 01:03 Король Лев Скачать торрент  

Король Лев / The Lion King
Год выпуска: 2019
Страна: США
Жанр: мультфильм, мюзикл, драма, приключения, семейный
Продолжительность: 01:58:15
Перевод: Дублированный | Лицензия
Субтитры: Русские (Full, SDH), английские

Режиссер: Джон Фавро

rating

В ролях:

Джеймс Эрл Джонс (Mufasa, озвучка), Дональд Гловер (Simba, озвучка), Чиветель Эджиофор (Scar, озвучка), Джон Оливер (Zazu, озвучка), Джон Кани (Rafiki, озвучка), Элфри Вудард (Sarabi, озвучка), Джейдон Маккрэри (Young Simba, озвучка), Шахади Райт Джозеф (Young Nala, озвучка), Пенни Джонсон (Sarafina, озвучка), Кигэн-Майкл Ки (Kamari, озвучка), Эрик Андре (Azizi, озвучка), Флоренс Касумба (Shenzi, озвучка)
Описание: Действие фильма разворачивается в африканской саванне и повествует о молодом льве по имени Симба, который потерял своего отца Муфасу из-за своего злобного дяди Шрама и был изгнан из прайда в дальние края пустыни. Годы спустя он возвращается, чтобы вернуть себе трон.

Качество: BDRip 1080p
Формат: MKV

Видео: MPEG-4 AVC, 1920x1080, 17.9 Mbit/s, 23.976 fps
Аудио #01: 48 kHz, AC3, 5.1, 640 Kbps | Лицензия | RUS |
Аудио #02: 48 kHz, AC3, 5.1, 640 Kbps | Оригинал | ENG |
скриншот  скриншот  скриншот  скриншот  скриншот  

General
Unique ID : 103008579077612833664588178132832214121 (0x4D7EBB0EFCB4C633DC485EAE3E1DDC69)
Complete name : F:Video111The.Lion.King.2019.Lic.BDRip.1080p.seleZen.mkv
Format : Matroska
Format version : Version 4
File size : 15.8 GiB
Duration : 1 h 58 min
Overall bit rate : 19.2 Mb/s
Movie name : The Lion King 2019 from селезень
Encoded date : UTC 2019-11-26 19:53:13
Writing application : mkvmerge v40.0.0 ('Old Town Road + Pony') 64-bit
Writing library : libebml v1.3.9 + libmatroska v1.5.2

Video
ID : 1
Format : AVC
Format/Info : Advanced Video Codec
Format profile : High@L4.1
Format settings : CABAC / 4 Ref Frames
Format settings, CABAC : Yes
Format settings, Reference : 4 frames
Codec ID : V_MPEG4/ISO/AVC
Duration : 1 h 58 min
Bit rate : 17.9 Mb/s
Width : 1 920 pixels
Height : 1 080 pixels
Display aspect ratio : 16:9
Frame rate mode : Constant
Frame rate : 23.976 (24000/1001) FPS
Color space : YUV
Chroma subsampling : 4:2:0
Bit depth : 8 bits
Scan type : Progressive
Bits/(Pixel*Frame) : 0.360
Stream size : 14.8 GiB (93%)
Title : MTeam
Writing library : x264 core 157 r2938 2b00a84 TnP@MTeam Mod
Encoding settings : cabac=1 / ref=4 / deblock=1:-3:-3 / analyse=0x3:0x133 / me=umh / subme=10 / psy=1 / psy_rd=1.05:0.00 / mixed_ref=1 / me_range=32 / chroma_me=1 / trellis=2 / 8x8dct=1 / cqm=0 / deadzone=21,11 / fast_pskip=0 / chroma_qp_offset=-2 / threads=12 / lookahead_threads=2 / sliced_threads=0 / nr=0 / decimate=0 / interlaced=0 / bluray_compat=0 / constrained_intra=0 / bframes=8 / b_pyramid=2 / b_adapt=2 / b_bias=0 / direct=3 / weightb=1 / open_gop=0 / weightp=2 / keyint=250 / keyint_min=24 / scenecut=40 / intra_refresh=0 / rc_lookahead=250 / rc=crf / mbtree=0 / crf=16.1 / qcomp=0.60 / qpmin=0 / qpmax=69 / qpstep=4 / vbv_maxrate=62500 / vbv_bufsize=78125 / crf_max=0.0 / nal_hrd=none / filler=0 / ip_ratio=1.30 / pb_ratio=1.20 / aq=3:0.80
Language : English
Default : Yes
Forced : No
Color range : Limited
Color primaries : BT.709
Matrix coefficients : BT.709

Audio #1
ID : 2
Format : AC-3
Format/Info : Audio Coding 3
Commercial name : Dolby Digital
Codec ID : A_AC3
Duration : 1 h 58 min
Bit rate mode : Constant
Bit rate : 640 kb/s
Channel(s) : 6 channels
Channel layout : L R C LFE Ls Rs
Sampling rate : 48.0 kHz
Frame rate : 31.250 FPS (1536 SPF)
Bit depth : 16 bits
Compression mode : Lossy
Stream size : 541 MiB (3%)
Title : Dub [License]
Language : Russian
Service kind : Complete Main
Default : Yes
Forced : Yes

Audio #2
ID : 3
Format : AC-3
Format/Info : Audio Coding 3
Commercial name : Dolby Digital
Codec ID : A_AC3
Duration : 1 h 58 min
Bit rate mode : Constant
Bit rate : 640 kb/s
Channel(s) : 6 channels
Channel layout : L R C LFE Ls Rs
Sampling rate : 48.0 kHz
Frame rate : 31.250 FPS (1536 SPF)
Bit depth : 16 bits
Compression mode : Lossy
Stream size : 541 MiB (3%)
Title : Original
Language : English
Service kind : Complete Main
Default : No
Forced : No

Text #1
ID : 4
Format : UTF-8
Codec ID : S_TEXT/UTF8
Codec ID/Info : UTF-8 Plain Text
Duration : 1 h 55 min
Bit rate : 68 b/s
Count of elements : 1371
Stream size : 58.1 KiB (0%)
Title : Full
Language : Russian
Default : No
Forced : No

Text #2
ID : 5
Format : UTF-8
Codec ID : S_TEXT/UTF8
Codec ID/Info : UTF-8 Plain Text
Duration : 1 h 47 min
Bit rate : 89 b/s
Count of elements : 1642
Stream size : 70.4 KiB (0%)
Title : SDH
Language : Russian
Default : No
Forced : No

Text #3
ID : 6
Format : UTF-8
Codec ID : S_TEXT/UTF8
Codec ID/Info : UTF-8 Plain Text
Duration : 1 h 46 min
Bit rate : 50 b/s
Count of elements : 1369
Stream size : 39.1 KiB (0%)
Title : Full
Language : English
Default : No
Forced : No

Menu
00:00:00.000 : en:Chapter 01
00:04:50.499 : en:Chapter 02
00:10:51.067 : en:Chapter 03
00:17:47.692 : en:Chapter 04
00:23:53.015 : en:Chapter 05
00:30:00.132 : en:Chapter 06
00:33:05.066 : en:Chapter 07
00:37:09.310 : en:Chapter 08
00:43:42.912 : en:Chapter 09
00:50:47.336 : en:Chapter 10
00:55:02.716 : en:Chapter 11
00:59:48.460 : en:Chapter 12
01:06:27.233 : en:Chapter 13
01:14:32.093 : en:Chapter 14
01:18:26.410 : en:Chapter 15
01:23:07.900 : en:Chapter 16
01:28:04.654 : en:Chapter 17
01:33:10.877 : en:Chapter 18
01:37:13.745 : en:Chapter 19
01:44:39.190 : en:Chapter 20
01:47:47.336 : en:Chapter 21
piratbit.xyz



Скачать Король Лев через торрент https://img16.lostpic.net/2019/10/12/85da9c1ac8456cde85b1ee2accf75474.jpg Скачать фильм Король Лев через торрент бесплантно в хорошем качестве Описание: Действие фильма разворачивается в африканской саванне и повествует о молодом льве по имени Симба, который потерял своего отца ... 9.9 10 42
Торрент: Зарегистрирован [2019-11-26 21:08] · скачан: 52 раз
Статус: √ проверено
Размер: 15.83 GB
Как cкачать? Как скачать Король Лев через торрент | qTorrent

% Раздел Тема Автор DL S | L
Иностранные мультфильмы [ 795 MB ] Король Лев / The Lion King [2019 мультфильм мюзикл HDRip] DUB [] bober100 Скачать
1 | 0
3D Мультфильмы [ 21.18 GB ] Король Лев в 3Д / The Lion King 3D [2019 Мультфильм мюзикл ремейк BDRip 1080p] OverUnder / Вертикальная стереопара serega768 Скачать
1 | 0
Ultra HD (UHD: 2K, 4K, 8K) [ 24.36 GB ] Король Лев / The Lion King [2019 мультфильм мюзикл UHD BDRip 2160p] DUB [] bober100 Скачать
3 | 0
3D Мультфильмы [ 13.45 GB ] Король Лев 3Д / The Lion King 3D [2019 мультфильм мюзикл BDRip 1080p] [Anamorph SideBySide] DUB [] bober100 Скачать
4 | 0
Зарубежные Мультфильмы (BDRip 1080p, 720p, Blu-ray, BD-Remux) [ 7.01 GB ] Король Лев / The Lion King [2019 мультфильм мюзикл BDRip-HEVC 1080p ] DUB [] bober100 Скачать
18 | 0
Иностранные мультфильмы [ 2.36 GB ] Король Лев / The Lion King [2019 мультфильм мюзикл BDRip-AVC] DUB [] - ExKinoRay Enigma2010 Скачать
41 | 1
Зарубежные Мультфильмы (BDRip 1080p, 720p, Blu-ray, BD-Remux) [ 4.71 GB ] Король Лев / The Lion King [2019 мультфильм мюзикл BDRip 720p] DUB [] - ExKinoRay Enigma2010 Скачать
381 | 64


Последний раз редактировалось: bober100 (2019-11-26 21:08), всего редактировалось 6 раз(а)

28-11-2019 20:33  

Отключить всю рекламу на сайте

11-10-2019 06:04 Король Лев Скачать торрент  

Спасибо за предоставленный релиз!, картинка отличная не сыпится, синхрон хороший, проверял на LG 55LM640T-ZA и Samsung UE40KU6300, графика впечатлила.piratbit.xyz



    Дорогой пользователь! Огромная просьба, поблагодарите релизера, оцените раздачу и оставьте свои комментарий, если Вы скачали Король Лев через торрент бесплатно! Внесите свою лепту в развитие PiratBit!
    Комментировать посты могут только пользователи прошедшие не сложную регистрацию
    Показать сообщения:    

    Король Лев через торрент
    Скачать бесплатно Король Лев
    Король Лев скачать торрент
    Король Лев смотреть онлайн
    Cкачать фильм Король Лев бесплатно
    Король Лев скачать торрент в хорошем качестве
    Король Лев смотреть онлайн бесплатно в хорошем качестве


    Вы не можете начинать темы
    Вы не можете отвечать на сообщения
    Вы не можете редактировать свои сообщения
    Вы не можете удалять свои сообщения
    Вы не можете голосовать в опросах
    Вы не можете прикреплять файлы к сообщениям
    Вы можете скачивать файлы