новый адрес пиратбит piratbit
MEGA NEWS Получи личный уникальный адрес сайта и защити себя от блокировок. Внимание количество ограничено!!!

iTunes

1+1

iTunes

мы

iTunes

1

iTunes

Чернобыль

iTunes

Ральф против интернета

Лицензия

ПШазам

Лицензия

Игра престолов

Лицензия

30
pack

ВАЖНО

!!Акция!!

Alien_RageХит недели

RePack

Resident Evil 21

ИГРА 18+

pack

RePack

Metro:Exodus

!!Акция!!

Alien_Rage

RePack

fifa19

RePack

Assassins Creed: Odyssey

RePack

NEED FOR SPEED™ PAYBACK

3 сезон

9 сезон

Бесстыжие 9 сезон

Все сериалы

все сериалы на PB.wtf

RePack

FAR CRY 5
Ребята, катастрофически не хватает 1900р. для оплаты серверов за АВГУСТ (всвязи с блокировками трафик упал в 3 раза), 1-2р., выручайте.
  

Поворот не туда / Wrong Turn (Роб Шмидт) [2003 г., ужасы, BDRip 720p, Дубляж] piratbit.xyz

Поворот не туда через торрент piratbit.xyz

Раздают: 2 [ 0 KB/s ]
Размер: 3.33 GB | Добавлен: 14 д. назад | Торрент скачан:42 раза
Скачать  

07-10-2019 14:37 Поворот не туда Скачать торрент  

Поворот не туда /
Wrong Turn
Год выпуска: 2003
Страна: США, Германия
Жанр: ужасы
Продолжительность: 01:24:15
Перевод: Дубляж
Субтитры: отсутствуют

Режиссер: Роб Шмидт

Премьера в мире: 30 мая 2003

rating

В ролях: Десмонд Хэррингтон, Элиза Душку, Эммануэль Шрики, Джереми Систо, Кевин Зегерс, Линди Бут, Джулиан Ричингс, Гэрри Роббинс, Тед Кларк, Ивонн Годри

Описание: Потерявшись в лесах Западной Вирджинии в результате рокового стечения обстоятельств, группа молодых людей пытается добраться до ближайшего телефона. Но вместо телефона им суждено найти дом в горах, увешанный страшным оружием и отвратительными трофеями. Кто или что живёт в этом доме? Молодые люди начинают понимать, что все их злоключения — способ загнать дичь в ловушку, где они — это дичь, а зловещие охотники — обитатели дома.

Качество: BDRip 720p
Формат: MKV
Видео кодек: H.264
Аудио кодек: AC3
Видео: AVC/H.264, 1280x696 (1,85:1), ~5015 kbps
Аудио#1: AC3, 6 ch, 640 kbps - Дубляж
Релиз от: winchester00100010
x264 [info]: profile High, level 4.1
x264 [info]: frame I:847 Avg QP:16.21 size:128986 PSNR Mean Y:46.88 U:52.40 V:53.37 Avg:48.04 Global:47.43
x264 [info]: frame P:28853 Avg QP:18.31 size: 46723 PSNR Mean Y:45.25 U:52.39 V:53.19 Avg:46.53 Global:45.84
x264 [info]: frame B:91488 Avg QP:20.16 size: 18669 PSNR Mean Y:44.09 U:51.90 V:52.83 Avg:45.40 Global:44.63

Общее
Уникальный идентификатор : 199682612374695124988730587645966137390 (0x963978E5AD4118FEA28C7EF9BD89B82E)
Полное имя : E:\МОИ РАЗДАЧИ ФИЛЬМЫ И СЕРИАЛЫ\Wrong.Turn.2003.BDRip.720p.mkv
Формат : Matroska
Версия формата : Version 2
Размер файла : 3,33 Гбайт
Продолжительность : 1 ч. 24 м.
Общий поток : 5651 Кбит/сек
Дата кодирования : UTC 2019-10-07 11:01:52
Программа кодирования : mkvmerge v7.8.0 ('River Man') 32bit built on Apr 3 2015 12:11:22
Библиотека кодирования : libebml v1.3.1 + libmatroska v1.4.2

Видео
Идентификатор : 1
Формат : AVC
Формат/Информация : Advanced Video Codec
Профиль формата : High@L4.1
Настройки формата : CABAC / 9 Ref Frames
Параметр CABAC формата : Да
Параметр RefFrames формата : 9 кадров
Идентификатор кодека : V_MPEG4/ISO/AVC
Продолжительность : 1 ч. 24 м.
Битрейт : 5015 Кбит/сек
Ширина : 1280 пикселей
Высота : 696 пикселей
Соотношение сторон : 1,85:1
Режим частоты кадров : Постоянный
Частота кадров : 23,976 (24000/1001) кадра/сек
Цветовое пространство : YUV
Субдискретизация насыщенности : 4:2:0
Битовая глубина : 8 бит
Тип развёртки : Прогрессивная
Бит/(Пиксели*Кадры) : 0.235
Размер потока : 2,88 Гбайт (87%)
Библиотека кодирования : x264 core 146 r2538 121396c
Настройки программы : cabac=1 / ref=9 / deblock=1:-3:-3 / analyse=0x3:0x113 / me=umh / subme=10 / psy=1 / psy_rd=1.00:0.15 / mixed_ref=1 / me_range=32 / chroma_me=1 / trellis=2 / 8x8dct=1 / cqm=0 / deadzone=21,11 / fast_pskip=0 / chroma_qp_offset=-3 / threads=12 / lookahead_threads=2 / sliced_threads=0 / nr=0 / decimate=0 / interlaced=0 / bluray_compat=0 / constrained_intra=0 / bframes=10 / b_pyramid=2 / b_adapt=2 / b_bias=0 / direct=3 / weightb=1 / open_gop=0 / weightp=2 / keyint=240 / keyint_min=23 / scenecut=40 / intra_refresh=0 / rc_lookahead=40 / rc=2pass / mbtree=0 / bitrate=5015 / ratetol=1.0 / qcomp=0.60 / qpmin=0 / qpmax=69 / qpstep=4 / cplxblur=20.0 / qblur=0.5 / vbv_maxrate=50000 / vbv_bufsize=62500 / nal_hrd=none / filler=0 / ip_ratio=1.40 / pb_ratio=1.30 / aq=1:0.90
Default : Да
Forced : Нет

Аудио
Идентификатор : 2
Формат : AC-3
Формат/Информация : Audio Coding 3
Коммерческое название : Dolby Digital
Идентификатор кодека : A_AC3
Продолжительность : 1 ч. 24 м.
Вид битрейта : Постоянный
Битрейт : 640 Кбит/сек
Каналы : 6 каналов
ChannelLayout : L R C LFE Ls Rs
Частота : 48,0 КГц
Частота кадров : 31,250 кадров/сек (1536 SPF)
Метод сжатия : С потерями
Размер потока : 386 Мбайт (11%)
ServiceKind/String : Complete Main
Default : Да
Forced : Нет

piratbit.xyz



Скачать Поворот не туда через торрент https://b.radikal.ru/b29/1910/e5/a33e8787901c.jpg Скачать фильм Поворот не туда через торрент бесплантно в хорошем качестве Описание: Потерявшись в лесах Западной Вирджинии в результате рокового стечения обстоятельств, группа молодых людей пытается добраться до ... 8.2 10 5
Торрент: Зарегистрирован [2019-10-07 14:54] · скачан: 42 раз
Статус: √ проверено
Размер: 3.33 GB
Как cкачать? Как скачать Поворот не туда через торрент | qTorrent

% Раздел Тема Автор DL S | L
Фильмы [HD 720p, 1080p] (Хороший звук DUB, MVO) [ 7.75 GB ] Поворот не туда 2: Тупик / Wrong Turn 2: Dead End [2007 BDRip 720p ] winchester00100010 Скачать
1 | 0
Фильмы 2009 [ 2.5 GB ] Поворот не туда 3 / Wrong Turn 3: Left for Dead [2009 BDRip-AVC ] winchester00100010 Скачать
1 | 1
Фильмы 2014 [DVDrip, WEB-DLRip, HDrip] [ 1.46 GB ] Поворот не туда 6 / Wrong Turn 6: Last Resort [2014 HDRip многоголосый - / ] _KaisiK_ Скачать
2 | 0
Фильмы (Blu-ray, BD-Remux, HDDVD) [ 23.4 GB ] Поворот не туда 6: Последний курорт / Wrong Turn 6: Last Resort [2014 BD-Remux многоголосый] Бумер Скачать
1 | 0
Фильмы 2014 [DVDrip, WEB-DLRip, HDrip] [ 2.18 GB ] Поворот не туда 6: Последний курорт / Wrong Turn 6: Last Resort [2014 BDRip-AVC] MVO + Original + Sub sokol_ok Скачать
2 | 0
Фильмы 2014 [DVDrip, WEB-DLRip, HDrip] [ 1.46 GB ] Поворот не туда 6: Последний курорт / Wrong Turn 6: Last Resort [2014 BDRip-AVC] MVO + Sub sokol_ok Скачать
2 | 0
Фильмы 2014 [DVDrip, WEB-DLRip, HDrip] [ 748 MB ] Поворот не туда 6: Последний курорт / Wrong Turn 6: Last Resort [2014 BDRip-AVC] MVO + Sub sokol_ok Скачать
2 | 0


Последний раз редактировалось: winchester00100010 (2019-10-07 14:54), всего редактировалось 3 раз(а)


>> Регистрируемся здесь <<






Отзывы и комментарии о схеме читаем и пишем здесь: ---> Отзывы и комментарии о схеме

Новые благодарочки в телеграм довольных пользователей:
скриншот   скриншот   скриншот   скриншот   скриншот
    Дорогой пользователь! Огромная просьба, поблагодарите релизера, оцените раздачу и оставьте свои комментарий, если Вы скачали Поворот не туда через торрент бесплатно! Внесите свою лепту в развитие PiratBit!
    Комментировать посты могут только пользователи прошедшие не сложную регистрацию
    Показать сообщения:    

    Поворот не туда через торрент
    Скачать бесплатно Поворот не туда
    Поворот не туда скачать торрент
    Поворот не туда смотреть онлайн
    Cкачать фильм Поворот не туда бесплатно
    Поворот не туда скачать торрент в хорошем качестве
    Поворот не туда смотреть онлайн бесплатно в хорошем качестве


    Вы не можете начинать темы
    Вы не можете отвечать на сообщения
    Вы не можете редактировать свои сообщения
    Вы не можете удалять свои сообщения
    Вы не можете голосовать в опросах
    Вы не можете прикреплять файлы к сообщениям
    Вы можете скачивать файлы