MEGA NEWS Получи личный уникальный адрес сайта и защити себя от блокировок. Внимание количество ограничено!!!

iTunes

1+1

iTunes

мы

iTunes

1

iTunes

Чернобыль

iTunes

Ральф против интернета

Лицензия

ПШазам

Лицензия

Игра престолов

Лицензия

30
pack

ВАЖНО

!!Акция!!

Alien_RageХит недели

RePack

Resident Evil 21

ИГРА 18+

pack

RePack

Metro:Exodus

!!Акция!!

Alien_Rage

RePack

fifa19

RePack

Assassins Creed: Odyssey

RePack

NEED FOR SPEED™ PAYBACK

3 сезон

9 сезон

Бесстыжие 9 сезон

Все сериалы

все сериалы на PB.wtf

RePack

FAR CRY 5
Ребята, катастрофически не хватает 1900р. для оплаты серверов за АВГУСТ (всвязи с блокировками трафик упал в 3 раза), 1-2р., выручайте.
  

Ода к радости / Ode to Joy (Джейсон Уайнер) [2019, комедия, WEB-DL 1080p] MVO [iTunes] piratbit.xyz

Ода к радости через торрент piratbit.xyz

Раздают: 14 [ 12 KB/s ]
Размер: 3.66 GB | Добавлен: 12 д. назад | Торрент скачан:174 раза
Скачать  

06-10-2019 18:40 Ода к радости Скачать торрент  

Ода к радости / Ode to Joy
Год выпуска: 2019
Страна: США
Жанр: комедия
Продолжительность: 01:37:42
Перевод: Профессиональный многоголосый | iTunes
Субтитры: Русские (Forced, full), английские

Режиссер: Джейсон Уайнер

rating

В ролях: Морена Баккарин, Мелисса Рауш, Мартин Фриман, Джейк Лэси, Шеннон Мари Вудворд, Джейн Куртин, Эллис Рубин, Джеки Сейден, Адам Шапиро, Алекс Перес

Описание: Рухнуть в обморок на свадьбе друзей — только бедолага Чарли способен на такое: любые сильные (и особенно положительные!) переживания моментально отправляют его в забытье. Разве это жизнь — в постоянной заботе о том, чтобы «не почувствовать лишнего»? Совсем трудно становится, когда Чарли знакомится с красавицей Франческой, абсолютной девушкой своей мечты. Трудно осуществить мечту, если любовь и радость — то, что тебе запрещено по медицинским показаниям…

Качество: WEB-DL 1080p
Формат: MKV

Видео: MPEG-4 AVC, 1920x790, 4489 Kbit/s, 23.976 fps
Аудио#1: 48 kHz, AC3, 5.1, 384 Kbps | iTunes | RUS |
Аудио#2: 48 kHz, AC3, 5.1, 384 Kbps | Оригинал | ENG |
скриншот  скриншот  скриншот  скриншот  скриншот  

General
Unique ID : 139457942250323030707015664111821655973 (0x68EA9F690586F699B67AB792CFC60FA5)
Complete name : D:Video111Ode.to.Joy.2019.WEB-DL.1080p.seleZen.mkv
Format : Matroska
Format version : Version 4
File size : 3.66 GiB
Duration : 1 h 37 min
Overall bit rate : 5 357 kb/s
Movie name : Ode to Joy 2019 from селезень
Encoded date : UTC 2019-10-06 18:26:43
Writing application : mkvmerge v22.0.0 ('At The End Of The World') 64-bit
Writing library : libebml v1.3.5 + libmatroska v1.4.8

Video
ID : 1
Format : AVC
Format/Info : Advanced Video Codec
Format profile : High@L4
Format settings : CABAC / 5 Ref Frames
Format settings, CABAC : Yes
Format settings, Reference : 5 frames
Codec ID : V_MPEG4/ISO/AVC
Duration : 1 h 37 min
Bit rate : 4 587 kb/s
Width : 1 920 pixels
Height : 790 pixels
Display aspect ratio : 2.40:1
Frame rate mode : Constant
Frame rate : 23.976 (23976/1000) FPS
Color space : YUV
Chroma subsampling : 4:2:0
Bit depth : 8 bits
Scan type : Progressive
Bits/(Pixel*Frame) : 0.126
Stream size : 3.13 GiB (86%)
Language : English
Default : Yes
Forced : No
Color range : Limited
Color primaries : BT.709
Transfer characteristics : BT.709
Matrix coefficients : BT.709

Audio #1
ID : 2
Format : AC-3
Format/Info : Audio Coding 3
Commercial name : Dolby Digital
Codec ID : A_AC3
Duration : 1 h 37 min
Bit rate mode : Constant
Bit rate : 384 kb/s
Channel(s) : 6 channels
Channel layout : L R C LFE Ls Rs
Sampling rate : 48.0 kHz
Frame rate : 31.250 FPS (1536 SPF)
Bit depth : 16 bits
Compression mode : Lossy
Stream size : 268 MiB (7%)
Title : iTunes
Language : Russian
Service kind : Complete Main
Default : Yes
Forced : Yes

Audio #2
ID : 3
Format : AC-3
Format/Info : Audio Coding 3
Commercial name : Dolby Digital
Codec ID : A_AC3
Duration : 1 h 37 min
Bit rate mode : Constant
Bit rate : 384 kb/s
Channel(s) : 6 channels
Channel layout : L R C LFE Ls Rs
Sampling rate : 48.0 kHz
Frame rate : 31.250 FPS (1536 SPF)
Bit depth : 16 bits
Compression mode : Lossy
Stream size : 268 MiB (7%)
Title : Original
Language : English
Service kind : Complete Main
Default : No
Forced : No

Text #1
ID : 4
Format : UTF-8
Codec ID : S_TEXT/UTF8
Codec ID/Info : UTF-8 Plain Text
Duration : 1 h 37 min
Bit rate : 0 b/s
Count of elements : 8
Stream size : 536 Bytes (0%)
Title : Forced
Language : Russian
Default : Yes
Forced : Yes

Text #2
ID : 5
Format : UTF-8
Codec ID : S_TEXT/UTF8
Codec ID/Info : UTF-8 Plain Text
Duration : 1 h 37 min
Bit rate : 109 b/s
Count of elements : 1451
Stream size : 77.9 KiB (0%)
Title : Full
Language : Russian
Default : No
Forced : No

Text #3
ID : 6
Format : UTF-8
Codec ID : S_TEXT/UTF8
Codec ID/Info : UTF-8 Plain Text
Duration : 1 h 29 min
Bit rate : 82 b/s
Count of elements : 1435
Stream size : 54.1 KiB (0%)
Title : Full
Language : English
Default : No
Forced : No

Menu
00:00:00.000 : en:1
00:15:48.865 : en:2
00:36:14.882 : en:3
00:48:10.389 : en:4
00:56:34.976 : en:5
01:10:34.649 : en:6
01:20:08.972 : en:7
01:31:39.579 : en:8

piratbit.xyz



Скачать Ода к радости через торрент https://b.radikal.ru/b01/1910/fe/309dff1d7bdb.jpg Скачать фильм Ода к радости через торрент бесплантно в хорошем качестве Описание: Рухнуть в обморок на свадьбе друзей — только бедолага Чарли способен на такое: любые сильные (и особенно положительные!) ... 10 10 9
Торрент: Зарегистрирован [2019-10-06 18:40] · скачан: 174 раз
Статус: √ проверено
Размер: 3.66 GB
Как cкачать? Как скачать Ода к радости через торрент | qTorrent

% Раздел Тема Автор DL S | L
Фильмы 2019 [DVDrip, WEB-DLRip, HDrip] (DUB, MVO) [ 1.46 GB ] Ода к радости / Ode to Joy [2019 WEB-DLRip] MVO bober100 Скачать
23 | 1


>> Регистрируемся здесь <<






Отзывы и комментарии о схеме читаем и пишем здесь: ---> Отзывы и комментарии о схеме

Новые благодарочки в телеграм довольных пользователей:
скриншот   скриншот   скриншот   скриншот   скриншот

07-10-2019 12:45 Ода к радости Скачать торрент  

Шикарный фильм!!!piratbit.xyz



    Дорогой пользователь! Огромная просьба, поблагодарите релизера, оцените раздачу и оставьте свои комментарий, если Вы скачали Ода к радости через торрент бесплатно! Внесите свою лепту в развитие PiratBit!
    Комментировать посты могут только пользователи прошедшие не сложную регистрацию
    Показать сообщения:    

    Ода к радости через торрент
    Скачать бесплатно Ода к радости
    Ода к радости скачать торрент
    Ода к радости смотреть онлайн
    Cкачать фильм Ода к радости бесплатно
    Ода к радости скачать торрент в хорошем качестве
    Ода к радости смотреть онлайн бесплатно в хорошем качестве


    Вы не можете начинать темы
    Вы не можете отвечать на сообщения
    Вы не можете редактировать свои сообщения
    Вы не можете удалять свои сообщения
    Вы не можете голосовать в опросах
    Вы не можете прикреплять файлы к сообщениям
    Вы можете скачивать файлы