MEGA NEWS Получи личный уникальный адрес сайта и защити себя от блокировок. Внимание количество ограничено!!!

iTunes

1+1

iTunes

мы

iTunes

1

iTunes

Чернобыль

iTunes

Ральф против интернета

Лицензия

ПШазам

Лицензия

Игра престолов

Лицензия

30
pack

ВАЖНО

!!Акция!!

Alien_RageХит недели

RePack

Resident Evil 21

ИГРА 18+

pack

RePack

Metro:Exodus

!!Акция!!

Alien_Rage

RePack

fifa19

RePack

Assassins Creed: Odyssey

RePack

NEED FOR SPEED™ PAYBACK

3 сезон

9 сезон

Бесстыжие 9 сезон

Все сериалы

все сериалы на PB.wtf

RePack

FAR CRY 5
Ребята, катастрофически не хватает 1900р. для оплаты серверов за АВГУСТ (всвязи с блокировками трафик упал в 3 раза), 1-2р., выручайте.
  

Триада / Сезон: 1 / Серии: 1-14 из 16 (Дмитрий Дьяченко) [2019, Комедия, WEB-DLRip] piratbit.xyz

Триада через торрент piratbit.xyz

Раздают: 8 [ 1 MB/s ] Качают: 12 [ 0 KB/s ]
Размер: 4.79 GB | Добавлен: 1 д. 17 ч. назад | Торрент скачан:17 раз
Скачать  

30-09-2019 17:26 Триада Скачать торрент  

Триада
Год выпуска: 2019
Страна: Россия
Жанр: Комедия
Продолжительность: ~ 00:25:00 (Серия)
Перевод: Не требуется
Субтитры: отсутствуют

Режиссер: Дмитрий Дьяченко



В ролях: Борис Дергачёв, Дарья Мороз, Любовь Аксёнова, Анастасия Калашникова, Александр Пташенчук, Инга Оболдина, Кирилл Полухин, Тимофей Трибунцев, Владислав Ветров, Елена Шевченко

Описание: Толя никак не может выбрать между любовницей и женой, с которой у них много лет не получается родить ребенка. Лучший друг советует ему переспать с танцовщицей в клубе и понять, перед какой из любящих женщин ему будет стыдно. Толя решает последовать совету… и через несколько недель все три женщины сообщают Толе, что у него будет ребенок… Ну то есть три ребенка… Одновременно! Вместо того чтобы провалиться сквозь землю, Толя принимает ответственное, но очень спорное решение. Несмотря ни на что он хочет остаться любящим отцом для каждого из троих детей. Поэтому Толя собирает всю триаду и объявляет, что все три матери должны непременно жить вместе с ним под одной крышей.

Качество: WEB-DLRip
Формат: AVI

Видео: 720x400 (1.80:1), 25 fps, XviD ~1550 kbps avg, 0.215 bit/pixel
Аудио: 48.0 kHz, AC3 Dolby Digital, 2/0 (L,R) ch, ~ 192 kbps
скриншот  скриншот  скриншот  скриншот  скриншот  

General
Complete name : D:\Triada.2019.WEB-DLRip.25Kuzmich\Triada.e01.WEB-DLRip.25Kuzmich.avi
Format : AVI
Format/Info : Audio Video Interleave
File size : 350 MiB
Duration : 27 min 58 s
Overall bit rate : 1 748 kb/s
Writing application : VirtualDubMod 1.5.10.3 | www.virtualdub-fr.org || (build 2550/release)
Writing library : VirtualDubMod build 2550/release

Video
ID : 0
Format : MPEG-4 Visual
Format profile : Advanced Simple@L5
Format settings : BVOP1
Format settings, BVOP : 1
Format settings, QPel : No
Format settings, GMC : No warppoints
Format settings, Matrix : Default (MPEG)
Codec ID : XVID
Codec ID/Hint : XviD
Duration : 27 min 58 s
Bit rate : 1 546 kb/s
Width : 720 pixels
Height : 400 pixels
Display aspect ratio : 16:9
Frame rate : 25.000 FPS
Color space : YUV
Chroma subsampling : 4:2:0
Bit depth : 8 bits
Scan type : Progressive
Compression mode : Lossy
Bits/(Pixel*Frame) : 0.215
Stream size : 309 MiB (88%)
Writing library : XviD 73

Audio
ID : 1
Format : AC-3
Format/Info : Audio Coding 3
Codec ID : 2000
Duration : 27 min 58 s
Bit rate mode : Constant
Bit rate : 192 kb/s
Channel(s) : 2 channels
Channel positions : Front: L R
Sampling rate : 48.0 kHz
Frame rate : 31.250 FPS (1536 SPF)
Bit depth : 16 bits
Compression mode : Lossy
Stream size : 38.4 MiB (11%)
Alignment : Split accross interleaves
Interleave, duration : 40 ms (1.00 video frame)
Interleave, preload duratio : 500 ms
Service kind : Complete Main

При каждом добавлении создаётся новый торрент. Чтобы начать докачку новой серии, пользователям необходимо сделать следующее:
- остановить скачивание;
- удалить старый торрент у себя из клиента (старые серии удалять не надо);
- скачать новый торрент и запустить его у себя в клиенте вместо старого, при этом указать клиенту путь в старую папку, куда и должно происходить скачивание новых серий.
piratbit.xyz



Скачать Триада через торрент https://img15.lostpic.net/2019/09/30/a709a8d8bb92ee0f30ba513688b87526.th.jpg Скачать фильм Триада через торрент бесплантно в хорошем качестве Описание: Толя никак не может выбрать между любовницей и женой, с которой у них много лет не получается родить ребенка. Лучший друг ... 9.9 10 13
Info! Золотая раздача, скачанное не засчитывается.
Торрент: Зарегистрирован [2019-10-17 18:25] · скачан: 17 раз
Статус: √ проверено
Размер: 4.79 GB
Как cкачать? Как скачать Триада через торрент | qTorrent

% Раздел Тема Автор DL S | L
TNT serials [ 5.25 GB ] Триада / Сезон: 1 / Серии: 1-14 из 16 [2019 HDTVRip-AVC] bober100 Скачать
3 | 5
TNT serials [ 14.36 GB ] Триада / Сезон: 1 / Серии: 1-14 из 16 [2019 HDTV 1080i] bober100 Скачать
10 | 11
TNT serials [ 11.28 GB ] Триада / Сезон: 1 / Серии: 1-14 из 16 [2019 WEB-DL 1080p] bober100 Скачать
4 | 5
TNT serials [ 6.73 GB ] Триада / Сезон: 1 / Серии: 1-14 из 16 [2019 WEB-DL 720p] bober100 Скачать
9 | 7
TNT serials [ 6.61 GB ] Триада / Сезон: 1 / Серии: 1-14 из 16 [2019 WEB-DLRip-AVC] bober100 Скачать
5 | 5


>> Регистрируемся здесь <<






Отзывы и комментарии о схеме читаем и пишем здесь: ---> Отзывы и комментарии о схеме

Новые благодарочки в телеграм довольных пользователей:
скриншот   скриншот   скриншот   скриншот   скриншот
    Дорогой пользователь! Огромная просьба, поблагодарите релизера, оцените раздачу и оставьте свои комментарий, если Вы скачали Триада через торрент бесплатно! Внесите свою лепту в развитие PiratBit!
    Комментировать посты могут только пользователи прошедшие не сложную регистрацию
    Показать сообщения:    

    Триада через торрент
    Скачать бесплатно Триада
    Триада скачать торрент
    Триада смотреть онлайн
    Cкачать фильм Триада бесплатно
    Триада скачать торрент в хорошем качестве
    Триада смотреть онлайн бесплатно в хорошем качестве


    Вы не можете начинать темы
    Вы не можете отвечать на сообщения
    Вы не можете редактировать свои сообщения
    Вы не можете удалять свои сообщения
    Вы не можете голосовать в опросах
    Вы не можете прикреплять файлы к сообщениям
    Вы можете скачивать файлы