новый адрес пиратбит piratbit
MEGA NEWS Получи личный уникальный адрес сайта и защити себя от блокировок. Внимание количество ограничено!!!

iTunes

1+1

iTunes

мы

iTunes

1

iTunes

Чернобыль

iTunes

Ральф против интернета

Лицензия

ПШазам

Лицензия

Игра престолов

Лицензия

30
pack

ВАЖНО

!!Акция!!

Alien_RageХит недели

RePack

Resident Evil 21

ИГРА 18+

pack

RePack

Metro:Exodus

!!Акция!!

Alien_Rage

RePack

fifa19

RePack

Assassins Creed: Odyssey

RePack

NEED FOR SPEED™ PAYBACK

3 сезон

9 сезон

Бесстыжие 9 сезон

Все сериалы

все сериалы на PB.wtf

RePack

FAR CRY 5
Ребята, катастрофически не хватает 1900р. для оплаты серверов за АВГУСТ (всвязи с блокировками трафик упал в 3 раза), 1-2р., выручайте.
  

Форт Боярд: Возвращение / Сезон: 1 / Серии: 1-5 из 10 (Дмитрий Васильев) [2019, ТВ-шоу, приключения, WEB-DL 1080p] piratbit.xyz

Форт Боярд: Возвращение через торрент piratbit.xyz

Раздают: 3 [ 26 KB/s ] Качают: 3 [ 0 KB/s ]
Размер: 14.99 GB | Добавлен: 1 д. 18 ч. назад | Торрент скачан:5 раз
Скачать  

30-09-2019 00:50 Форт Боярд: Возвращение Скачать торрент  

Форт Боярд: Возвращение
Год выпуска: 2019
Страна: Россия
Жанр: ТВ-шоу, приключения
Продолжительность: 01:15:00
Перевод: Не требуется
Субтитры: отсутствуют

Режиссер: Дмитрий Васильев

Ведущий: Сергей Шнуров

Описание: Форт Боярд. Возвращение. Популярные актеры, музыканты, комики, ведущие и топовые блогеры окунутся в таинственный мир знаменитого форта. Они должны будут преодолеть свои страхи, чтобы добраться до спрятанных сокровищ. Героев на пути к сокровищам, которые спрятаны в форте, ждут серьезные испытания. Они встретятся со змеями, пауками и скорпионами, взлетят с помощью катапульты, проверят лёгкие под водой, почувствуют себя космонавтами, попадут в тёмный лабиринт. Как и в старом шоу, их ждут и головоломки, которые им приготовил старец Фура. Участникам шоу «Форт Боярд. Возвращение» проходить испытания будут помогать (а иногда и мешать) повар Вилли, который готовит несъедобные деликатесы, проводники Паспарту и Пасмюрай, тюремщик Мистер Бу и самая сильная женщина форта Леди Бу.…

Качество: WEB-DL 1080p
Формат: MKV

Видео: MPEG-4 AVC, ~ 5000 Кбит/с, 1920x1080
Аудио: 48 kHz, АС3, 2/0 (L,R), ~192.00 kbps avg
скриншот  скриншот  скриншот  скриншот  

Общее
Уникальный идентификатор : 217946346031732704903567529124666352823 (0xA3F6F07D1F8ECA8FB359E58A012924B7)
Полное имя : D:\Fort.Boyard.Vozvraschenie.2019.WEB-DL.1080.25Kuzmich\Fort.Boyard.Vozvraschenie.s01.e01.WEB-DL.1080.25Kuzmich.mkv
Формат : Matroska
Версия формата : Version 2
Размер файла : 2,71 Гбайт
Продолжительность : 1 ч. 14 м.
Режим общего битрейта : Переменный
Общий поток : 5204 Кбит/сек
Дата кодирования : UTC 2019-09-22 15:32:27
Программа кодирования : mkvmerge v4.0.0 ('The Stars were mine') сборка от Jun 6 2010 16:18:42
Библиотека кодирования : libebml v1.0.0 + libmatroska v1.0.0

Видео
Идентификатор : 1
Формат : AVC
Формат/Информация : Advanced Video Codec
Профиль формата : High@L4.1
Параметр CABAC формата : Да
Параметр RefFrames формата : 5 кадров
Идентификатор кодека : V_MPEG4/ISO/AVC
Продолжительность : 1 ч. 14 м.
Вид битрейта : Переменный
Битрейт : 4909 Кбит/сек
Максимальный битрейт : 40,0 Мбит/сек
Ширина : 1920 пикселей
Высота : 1080 пикселей
Соотношение сторон : 16:9
Режим частоты кадров : Постоянный
Частота кадров : 25,000 кадров/сек
Цветовое пространство : YUV
Субдискретизация насыщенности : 4:2:0
Битовая глубина : 8 бит
Тип развёртки : Прогрессивная
Бит/(Пиксели*Кадры) : 0.095
Размер потока : 2,55 Гбайт (94%)
Язык : Russian
Default : Да
Forced : Нет

Аудио
Идентификатор : 2
Формат : AC-3
Формат/Информация : Audio Coding 3
Расширение режима : CM (complete main)
Параметр Endianness формата : Big
Идентификатор кодека : A_AC3
Продолжительность : 1 ч. 14 м.
Вид битрейта : Постоянный
Битрейт : 192 Кбит/сек
Каналы : 2 канала
Расположение каналов : Front: L R
Частота : 48,0 КГц
Частота кадров : 31,250 кадров/сек (1536 spf)
Метод сжатия : С потерями
Размер потока : 102 Мбайт (4%)
Язык : Russian
Default : Да
Forced : Нет

Внимание! Раздача ведётся путём добавления новых серий; при каждом добавлении создаётся новый торрент.
Чтобы начать докачку новой серии, пользователям необходимо сделать следующее:
1. Остановить скачивание.
2. Удалить старый торрент у себя из клиента (старые серии удалять не надо).
3. Скачать новый торрент и запустить его у себя в клиенте вместо старого, при этом указать клиенту путь в старую папку куда и должно происходить скачивание новых серий.
Ваш клиент при этом должен произвести хеширование (проверку) старой папки (если не производит сам - помогите ему сделать это), и будет докачивать только те серии которых у вас ещё нет. Старые серии при этом не удаляются, а продолжают раздаваться!
Eсли вы уже удалили старые серии, то предотвратить повторную закачку старых серий можно, отжав галочку в соответствующих местах при запуске нового торрента.
piratbit.xyz



Скачать Форт Боярд: Возвращение через торрент https://i89.fastpic.ru/big/2019/0922/3c/bd9d7dcd6124b0b09177ecebe7be5a3c.jpg Скачать фильм Форт Боярд: Возвращение через торрент бесплантно в хорошем качестве Описание: Форт Боярд. Возвращение. Популярные актеры, музыканты, комики, ведущие и топовые блогеры окунутся в таинственный мир знаменитого ... 8.5 10 6
Торрент: Зарегистрирован [2019-10-20 17:18] · скачан: 5 раз
Статус: √ проверено
Размер: 14.99 GB
Как cкачать? Как скачать Форт Боярд: Возвращение через торрент | qTorrent

% Раздел Тема Автор DL S | L
Развлекательные телепередачи и шоу, приколы и юмор [ 7.76 GB ] Форт Боярд: Возвращение / Сезон: 1 / Серии: 1-5 из 10 [2019 ТВ-шоу WEB-DLRip-AVC] bober100 Скачать
3 | 4
Развлекательные телепередачи и шоу, приколы и юмор [ 9.75 GB ] Форт Боярд: Возвращение / Сезон: 1 / Серии: 1-5 из 10 [2019 ТВ-шоу WEB-DL 720p] bober100 Скачать
1 | 2


Последний раз редактировалось: bober100 (2019-10-20 17:18), всего редактировалось 2 раз(а)


>> Регистрируемся здесь <<






Отзывы и комментарии о схеме читаем и пишем здесь: ---> Отзывы и комментарии о схеме

Новые благодарочки в телеграм довольных пользователей:
скриншот   скриншот   скриншот   скриншот   скриншот

07-10-2019 01:08 Форт Боярд: Возвращение Скачать торрент  

Скриншоты огонь , аж тошнить начало .piratbit.xyz



07-10-2019 04:20 Форт Боярд: Возвращение Скачать торрент  

PIXELINTERLAN писал(а):

Скриншоты огонь , аж тошнить начало .

Особенно последний)piratbit.xyz



20-10-2019 17:38 Форт Боярд: Возвращение Скачать торрент  

Спасибо Вам Огромное bober100, С Уважением!!!piratbit.xyz



20-10-2019 18:36 Форт Боярд: Возвращение Скачать торрент  

hohol270880 писал(а):

PIXELINTERLAN писал(а):

Скриншоты огонь , аж тошнить начало .

Особенно последний)

А что не так,качество видно,а то что вам не нравится то что на картинке,это к раздаче не имеет отношения.piratbit.xyz



    Дорогой пользователь! Огромная просьба, поблагодарите релизера, оцените раздачу и оставьте свои комментарий, если Вы скачали Форт Боярд: Возвращение через торрент бесплатно! Внесите свою лепту в развитие PiratBit!
    Комментировать посты могут только пользователи прошедшие не сложную регистрацию
    Показать сообщения:    

    Форт Боярд: Возвращение через торрент
    Скачать бесплатно Форт Боярд: Возвращение
    Форт Боярд: Возвращение скачать торрент
    Форт Боярд: Возвращение смотреть онлайн
    Cкачать фильм Форт Боярд: Возвращение бесплатно
    Форт Боярд: Возвращение скачать торрент в хорошем качестве
    Форт Боярд: Возвращение смотреть онлайн бесплатно в хорошем качестве


    Вы не можете начинать темы
    Вы не можете отвечать на сообщения
    Вы не можете редактировать свои сообщения
    Вы не можете удалять свои сообщения
    Вы не можете голосовать в опросах
    Вы не можете прикреплять файлы к сообщениям
    Вы можете скачивать файлы