новый адрес
Мега распродажа FORZA HORIZON 4 ULTIMATE+ВСЕ DLC+ОНЛАЙН всего за 499р. 349 руб. (супер цена). Внимание количество ограничено!!!

iTunes

1+1

iTunes

мы

iTunes

1

iTunes

Чернобыль

iTunes

Ральф против интернета

Лицензия

ПШазам

Лицензия

Игра престолов

Лицензия

30
pack

ВАЖНО

!!Акция!!

Alien_RageХит недели

RePack

Resident Evil 21

ИГРА 18+

pack

RePack

Metro:Exodus

!!Акция!!

Alien_Rage

RePack

fifa19

RePack

Assassins Creed: Odyssey

RePack

NEED FOR SPEED™ PAYBACK

3 сезон

9 сезон

Бесстыжие 9 сезон

Все сериалы

все сериалы на PB.wtf

RePack

FAR CRY 5
Ребята, катастрофически не хватает 1900р. для оплаты серверов за Октябрь (всвязи с блокировками трафик упал в 3 раза), 1-2р., выручайте.
  

Американская история ужасов / American Horror Story / Сезон: 9 / Серии: 1-9 из 9 (Мэри Вигмор, Лони Перистер, Джон Дж.) [2019, ужасы, триллер, драма, WEB-DL 1080p] MVO [Amedia / Novamedia] piratbit.xyz

Американская история ужасов через торрент piratbit.xyz

Раздают: 3 [ 2 MB/s ] Качают: 6 [ 0 KB/s ]
Размер: 22.36 GB | Добавлен: 3 д. назад | Торрент скачан:5 раз
Скачать  

21-09-2019 09:46 Американская история ужасов Скачать торрент  

Американская история ужасов / American Horror Story: 1984 Год выпуска: 2019
Название сезона: 1984
Страна: США
Жанр: ужасы, триллер, драма
Продолжительность: 00:50:00
Перевод: Профессиональный (многоголосый закадровый) | Amedia / Novamedia
Субтитры: Русские (Amedia), Русские (Forced), Английские (SDH)

Режиссёр: Мэри Вигмор, Лони Перистер, Джон Дж. Грэй, Дженнифер Чэмберс Линч

В ролях: Эмма Робертс, Билли Лурд, Мэттью Моррисон, ДеРон Хортон, Коди Ферн, Анджелика Росс, Гас Кенуорти, Лесли Гроссман, Джон Кэрролл Линч, Зак Вилла (Ричард Рамирес)

Описание: "Американская история ужасов" - это телевизионная хоррор-антология от именитых американских продюсеров Брэда Фалчака и Райана Мерфи. Действие каждого ее сезона разворачивается в новом месте, представляя зрителям отдельную самостоятельную историю с целой галереей внушающих ужас и отвращение персонажей. В сериале, являющем собой гремучую смесь всех наших детских страхов и ночных кошмаров, а также отсылок к культовым ужастикам, можно встретить не только хладнокровных серийных маньяков, но и любителей раскапывать могилы, нимфоманок, сиамских близнецов, верховную жрицу луизианского культа вуду, экспериментирующих над своими пациентами врачей и даже человека-лобстера. Многие герои имеют реальных прототипов, что делает события "Американской истории ужасов" еще более впечатляющими и выводящими из равновесия. Уникальный формат шоу и его успех у зрителей позволяют создателям привлекать к съемкам звезд первой величины, таких как Джессика Лэнг и Леди Гага. Многие из сотрудничающих с Мерфи актеров с охотой соглашаются на новые роли в последующих сезонах. За время своей трансляции на канале FX шоу стабильно удерживало высокие рейтинги, удостоилось множества престижных наград и номинаций.

Сюжет: Девятый сезон мистического сериала-антологии получил подзаголовок «1984» и вдохновлен классическими слэшерами («Хеллоуин», «Пятница 13»). События развернутся в летнем лагере под названием «Рэдвуд», где промышляет маньяк в маске. На этот раз основной актерский состав претерпел некоторые изменения: в новом сезоне мы не увидим Эвана Питерса, а любимица публики Сара Полсон появится лишь в небольшой роли.



Качество: WEB-DL 1080p (AMAZON)
Контейнер: MKV

Видео: H.264/AVC, 1920x1080p (1.78:1), 23.976 fps, ~9014 kbps, ~0.181 bit/pixel
Аудио №1: Русский E-AC3/DD+ 5.1, 48 kHz, 192 kbps
Аудио №2: Английский E-AC3/DD+ 5.1, 48 kHz, 640 kbps


Реклама: отсутствует
Работа со звуком, субтитрами: itunestv@eniahd
Eng: The notorious Mr. Jingles brutally kills nine camp residents in 1970. Fourteen years later, Jingles escapes the insane asylum where he was confined and returns to the camp to wreck bloody havoc.
Rus: 1984 год. Группа друзей сбегает из Лос-Анджелеса на лето, чтобы скрыться от олимпийской суеты и заодно от серийного убийцы, известного по кличке Ночной Маньяк. Они отправляются работать вожатыми в заново открытый лагерь «Редвуд», где много лет назад уже другой убийца по прозвищу Мистер Звяк вырезал целую толпу детей.
General
Unique ID                                : 288384442225283715366684283095216623976 (0xD8F4D2C253F16731CBE82402FD091168)
Complete name                            : American.Horror.Story.S09E01.1984.Camp.Redwood.1080p.AMZN.WEB-DL.H.264.RUS.A.DDP5.1.SRT-EniaHD.mkv
Format                                   : Matroska
Format version                           : Version 4
File size                                : 3.31 GiB
Duration                                 : 48 min 10 s
Overall bit rate                         : 9 849 kb/s
Movie name                               : American Horror Story: 1984, Season 9 / Camp Redwood
Track name/Position                      : 1
Track name/Total                         : 10
Description                              : The notorious Mr. Jingles brutally kills nine camp residents in 1970. Fourteen years later, Jingles escapes the insane asylum where he was confined and returns to the camp to wreck bloody havoc.
Released date                            : 2019-09-19T02:00:00
Writing application                      : mkvmerge v37.0.0 ('Leave It') 64-bit
Writing library                          : libebml v1.3.9 + libmatroska v1.5.2
Cover                                    : Yes
Attachments                              : small_cover.jpg / cover.jpg

Video
ID                                       : 1
Format                                   : AVC
Format/Info                              : Advanced Video Codec
Format profile                           : High@L4
Format settings                          : CABAC / 4 Ref Frames
Format settings, CABAC                   : Yes
Format settings, ReFrames                : 4 frames
Codec ID                                 : V_MPEG4/ISO/AVC
Duration                                 : 48 min 10 s
Bit rate mode                            : Constant
Bit rate                                 : 9 014 kb/s
Nominal bit rate                         : 10 000 kb/s
Width                                    : 1 920 pixels
Height                                   : 1 080 pixels
Display aspect ratio                     : 16:9
Frame rate mode                          : Constant
Frame rate                               : 23.976 (24000/1001) FPS
Color space                              : YUV
Chroma subsampling                       : 4:2:0
Bit depth                                : 8 bits
Scan type                                : Progressive
Bits/(Pixel*Frame)                       : 0.181
Stream size                              : 3.03 GiB (92%)
Language                                 : English
Default                                  : Yes
Forced                                   : No
Color range                              : Limited
Color primaries                          : BT.709
Transfer characteristics                 : BT.709
Matrix coefficients                      : BT.709

Audio #1
ID                                       : 2
Format                                   : E-AC-3
Format/Info                              : Enhanced AC-3
Commercial name                          : Dolby Digital Plus
Codec ID                                 : A_EAC3
Duration                                 : 48 min 10 s
Bit rate mode                            : Constant
Bit rate                                 : 192 kb/s
Channel(s)                               : 6 channels
Channel layout                           : L R C LFE Ls Rs
Sampling rate                            : 48.0 kHz
Frame rate                               : 31.250 FPS (1536 SPF)
Compression mode                         : Lossy
Stream size                              : 66.2 MiB (2%)
Title                                    : E-AC3 5.1 @ 192kbps - MVO, Amedia / Novamedia
Language                                 : Russian
Service kind                             : Complete Main
Default                                  : Yes
Forced                                   : No
Released date                            : 2019-08-26T16:16:29

Audio #2
ID                                       : 3
Format                                   : E-AC-3
Format/Info                              : Enhanced AC-3
Commercial name                          : Dolby Digital Plus
Codec ID                                 : A_EAC3
Duration                                 : 48 min 10 s
Bit rate mode                            : Constant
Bit rate                                 : 640 kb/s
Channel(s)                               : 6 channels
Channel layout                           : L R C LFE Ls Rs
Sampling rate                            : 48.0 kHz
Frame rate                               : 31.250 FPS (1536 SPF)
Compression mode                         : Lossy
Stream size                              : 221 MiB (6%)
Title                                    : E-AC3 5.1 @ 640kbps - Original
Language                                 : English
Service kind                             : Complete Main
Default                                  : No
Forced                                   : No

Text #1
ID                                       : 4
Format                                   : PGS
Muxing mode                              : zlib
Codec ID                                 : S_HDMV/PGS
Codec ID/Info                            : Picture based subtitle format used on BDs/HD-DVDs
Duration                                 : 5 s 0 ms
Bit rate                                 : 9 608 b/s
Count of elements                        : 2
Stream size                              : 5.86 KiB (0%)
Title                                    : Forced
Language                                 : Russian
Default                                  : Yes
Forced                                   : Yes

Text #2
ID                                       : 5
Format                                   : UTF-8
Codec ID                                 : S_TEXT/UTF8
Codec ID/Info                            : UTF-8 Plain Text
Duration                                 : 47 min 16 s
Bit rate                                 : 83 b/s
Count of elements                        : 599
Stream size                              : 29.1 KiB (0%)
Title                                    : Amedia
Language                                 : Russian
Default                                  : No
Forced                                   : No

Text #3
ID                                       : 6
Format                                   : UTF-8
Codec ID                                 : S_TEXT/UTF8
Codec ID/Info                            : UTF-8 Plain Text
Duration                                 : 47 min 35 s
Bit rate                                 : 67 b/s
Count of elements                        : 851
Stream size                              : 23.4 KiB (0%)
Title                                    : SDH
Language                                 : English
Default                                  : No
Forced                                   : No

Text #4
ID                                       : 7
Format                                   : UTF-8
Codec ID                                 : S_TEXT/UTF8
Codec ID/Info                            : UTF-8 Plain Text
Duration                                 : 47 min 35 s
Bit rate                                 : 60 b/s
Count of elements                        : 733
Stream size                              : 21.0 KiB (0%)
Language                                 : English
Default                                  : No
Forced                                   : No
Когда раздача ведётся путём добавления новых серий, при каждом добавлении создётся новый торрент. Чтобы начать докачку новой серии, пользователям необходимо сделать следующее:
(1) остановить скачивание,
(2) удалить старый торрент у себя из клиента (старые серии удалять не надо),
(3) скачать новый торрент и запустить его у себя в клиенте вместо старого, при этом указать клиенту путь в старую папку, куда и должно происходить скачивание новых серий.
Ваш клиент при этом должен произвести хеширование (проверку) старой папки (если не производит сам - помогите ему сделать это), и будет докачивать только те серии, которых у вас ещё нет.Старые серии при этом не удаляются, а продолжают раздаваться!
Eсли вы уже удалили старые серии, то предотвратить повторную закачку старых серий можно, отжав галочку в соответсвующих местах при запуске нового торрента. По возможности, желательно не удалять старые серии как можно дольше, чтобы релизёр не столько продолжал раздавать старые серии, а смог сконцентрироваться на новых.
piratbit.xyz



Скачать Американская история ужасов через торрент https://img16.lostpic.net/2019/09/20/39e94ee41550eb3d9b40e4e25926816c.jpg Скачать фильм Американская история ужасов через торрент бесплантно в хорошем качестве Описание: "Американская история ужасов" - это телевизионная хоррор-антология от именитых американских продюсеров Брэда Фалчака и Райана ... 10 10 10
Торрент: Зарегистрирован [2019-11-15 15:09] · скачан: 5 раз
Статус: √ проверено
Размер: 22.36 GB
Как cкачать? Как скачать Американская история ужасов через торрент | qTorrent

% Раздел Тема Автор DL S | L
Американская история ужасов [ 22.13 GB ] Американская история ужасов / American Horror Story / Сезон: 9 / Серии: 1-9 из 9 [2019 WEB-DL 1080p] MVO [Jaskier] bober100 Скачать
1 | 2
Американская история ужасов [ 12.09 GB ] Американская история ужасов / American Horror Story / Сезон: 9 / Серии: 1-9 из 9 [2019 WEB-DL 720p] [MVO] killermax2013 Скачать
1 | 1
Американская история ужасов [ 23.48 GB ] Американская история ужасов / American Horror Story / Сезон: 9 / Серия: 1-9 из 9 [2019 WEB-DL 1080p] MVO [LostFilm] bober100 Скачать
5 | 4
Американская история ужасов [ 13.12 GB ] Американская история ужасов / American Horror Story / Сезон: 9 / Серии: 1-9 из 9 [2019 WEB-DL 720p] MVO [NewStudio] bober100 Скачать
5 | 4
Американская история ужасов [ 12.04 GB ] Американская история ужасов / American Horror Story / Сезон: 9 / Серии: 1-5 из 10 [2019 WEB-DL 1080p] MVO [AMS] bober100 Скачать
2 | 1
Американская история ужасов [ 22.48 GB ] Американская история ужасов / American Horror Story / Сезон: 9 / Серии: 1-9 из 9 [2019 WEB-DL 1080p] [MVO] killermax2013 Скачать
2 | 0
Американская история ужасов [ 5.25 GB ] Американская история ужасов / American Horror Story / Сезон: 9 / Серии: 1-9 из 9 [2019 WEB-DLRip] MVO [Amedia] bober100 Скачать
4 | 0


Последний раз редактировалось: bober100 (2019-11-08 16:38), всего редактировалось 6 раз(а)


>> Регистрируемся здесь <<






Отзывы и комментарии о схеме читаем и пишем здесь: ---> Отзывы и комментарии о схеме

Новые благодарочки в телеграм довольных пользователей:
скриншот   скриншот   скриншот   скриншот   скриншот
    Дорогой пользователь! Огромная просьба, поблагодарите релизера, оцените раздачу и оставьте свои комментарий, если Вы скачали Американская история ужасов через торрент бесплатно! Внесите свою лепту в развитие PiratBit!
    Комментировать посты могут только пользователи прошедшие не сложную регистрацию
    Показать сообщения:    

    Американская история ужасов через торрент
    Скачать бесплатно Американская история ужасов
    Американская история ужасов скачать торрент
    Американская история ужасов смотреть онлайн
    Cкачать фильм Американская история ужасов бесплатно
    Американская история ужасов скачать торрент в хорошем качестве
    Американская история ужасов смотреть онлайн бесплатно в хорошем качестве


    Вы не можете начинать темы
    Вы не можете отвечать на сообщения
    Вы не можете редактировать свои сообщения
    Вы не можете удалять свои сообщения
    Вы не можете голосовать в опросах
    Вы не можете прикреплять файлы к сообщениям
    Вы можете скачивать файлы