MEGA SALE -50% FORZA HORIZON 4 ULTIMATE+ВСЕ DLC+ОНЛАЙН всего за 599р. 299 руб. (супер цена). Внимание количество ограничено!!!

iTunes

1+1

iTunes

мы

iTunes

1

iTunes

Чернобыль

iTunes

Ральф против интернета

Лицензия

ПШазам

Лицензия

Игра престолов

Лицензия

30
pack

ВАЖНО

!!Акция!!

Alien_RageХит недели

RePack

Resident Evil 21

ИГРА 18+

pack

RePack

Metro:Exodus

!!Акция!!

Alien_Rage

RePack

fifa19

RePack

Assassins Creed: Odyssey

RePack

NEED FOR SPEED™ PAYBACK

3 сезон

9 сезон

Бесстыжие 9 сезон

Все сериалы

все сериалы на PB.wtf

RePack

FAR CRY 5
Ребята, катастрофически не хватает 7730р. для оплаты серверов за АВГУСТ (всвязи с блокировками трафик упал в 3 раза), 1-2р., выручайте.
  

Брест. Крепостные Герои (Алексей Пивоваров, Сергей Иванов) / [2010, Россия, документальный, военный, история, DVDRip от AVP Studio] piratbit.xyz

Брест. Крепостные Герои через торрент piratbit.xyz

Раздают: 6 [ 0 KB/s ]
Размер: 744 MB | Добавлен: 4 д. назад | Торрент скачан:4 раза
Скачать  

11-09-2019 12:05 Брест. Крепостные Герои Скачать торрент  

Брест. Крепостные Герои
Страна: Россия
Производство: Авиатор Продакшн, Телекомпания НТВ

Жанр: документальный, военный, история
Год выпуска: 2010
Продолжительность: 01:07:12

Перевод: не требуется
Оригинальная аудиодорожка: русский
Cубтитры: нет

Режиссер: Алексей Пивоваров, Сергей Иванов

В ролях:
Алексей Серебряков, Екатерина Гусева, Маркус Кунце, Константин Смирнов, Алексей Пивоваров, Владимир Селиванов...
Об актёрах подробней

Описание:
Брестская крепость, первой в июне 1941 года вставшая на пути фашистской молниеносной войны, для всех нас является символом героизма. Вспоминается репродукция классической картины Петра Кривоногова «Защитники Брестской крепости» и надпись на стене «Я умираю, но не сдаюсь. Прощай, Родина». Самоотверженная оборона крепости и эта надпись — исторический факт. Есть и другой факт — шокирующий. Подвиг защитников Брестской крепости мог бы так и остаться за пределами официальной советской истории, ведь почти все из тех немногих защитников, кто сумел уцелеть, попали в немецкий плен, а Сталин недвусмысленно говорил: «У нас нет пленных. Есть изменники родины».

Исходник: DVD5 R5
Тип релиза: DVDRip
Контейнер: AVI

Видео: 704x400 (16:9), 25 fps, XviD ~ 1346 kbps avg, 0.191 bit/pixel
Аудио: 48 kHz, Dolby Digital AC3 2.0, 192 kbps

Раздача от:
Общее
Полное имя : Brest.krepostnye.geroi.2010.O.DVDRip_[New-team]_by_AVP_Studio.avi
Формат : AVI
Формат/Информация : Audio Video Interleave
Размер файла : 744 Мбайт
Продолжительность : 1 ч. 7 м.
Общий поток : 1548 Кбит/сек
Программа кодирования : VirtualDubModRus 1.5.10.2 (build 2542/release)
Библиотека кодирования : VirtualDubMod build 2542/release

Видео
Идентификатор : 0
Формат : MPEG-4 Visual
Профиль формата : Advanced Simple@L5
Параметр BVOP формата : 1
Параметр QPel формата : Нет
Параметр GMC формата : Без точки перехода
Параметр матрицы формата : Выборочная
Идентификатор кодека : XVID
Идентификатор кодека/Подсказка : XviD
Продолжительность : 1 ч. 7 м.
Битрейт : 1346 Кбит/сек
Ширина : 704 пикселя
Высота : 400 пикселей
Соотношение сторон : 16:9
Частота кадров : 25,000 кадров/сек
Цветовое пространство : YUV
Субдискретизация насыщенности : 4:2:0
Битовая глубина : 8 бит
Тип развёртки : Прогрессивная
Метод сжатия : С потерями
Бит/(Пиксели*Кадры) : 0.191
Размер потока : 647 Мбайт (87%)
Библиотека кодирования : XviD 73

Аудио
Идентификатор : 1
Формат : AC-3
Формат/Информация : Audio Coding 3
Расширение режима : CM (complete main)
Параметр Endianness формата : Big
Идентификатор кодека : 2000
Продолжительность : 1 ч. 7 м.
Вид битрейта : Постоянный
Битрейт : 192 Кбит/сек
Каналы : 2 канала
Расположение каналов : Front: L R
Частота : 48,0 КГц
Битовая глубина : 16 бит
Метод сжатия : С потерями
Размер потока : 92,3 Мбайт (12%)
Выравнивание : Разделение по промежуткам
Продолжительность промежутка : 40 мс. (1,00 видеокадр)
Время предзагрузки промежутка : 500 мс
piratbit.xyz



Скачать Брест. Крепостные Герои через торрент http://i63.fastpic.ru/big/2014/1120/f0/bd6adc5067ffcc9befed0dda8629d7f0.png Скачать фильм Брест. Крепостные Герои через торрент бесплантно в хорошем качестве Описание:Брестская крепость, первой в июне 1941 года вставшая на пути фашистской молниеносной войны, для всех нас является символом ... 5 10 1
Торрент: Зарегистрирован [2019-09-11 12:05] · скачан: 4 раз
Статус: √ проверено
Размер: 744 MB
Как cкачать? Как скачать Брест. Крепостные Герои через торрент | qTorrent

% Раздел Тема Автор DL S | L
Военное дело [ 744 MB ] Брест. Крепостные Герои / [2010 Россия документальный военный история DVDRip-AVC от AVP Studio] AVP Studio Скачать
8 | 2
Военное дело [ 746 MB ] Брест. Крепостные Герои [2010 Документальный SATRip] 220v0lt Скачать
1 | 0


>> Регистрируемся здесь <<






Отзывы и комментарии о схеме читаем и пишем здесь: ---> Отзывы и комментарии о схеме

Новые благодарочки в телеграм довольных пользователей:
скриншот   скриншот   скриншот   скриншот   скриншот
    Дорогой пользователь! Огромная просьба, поблагодарите релизера, оцените раздачу и оставьте свои комментарий, если Вы скачали Брест. Крепостные Герои через торрент бесплатно! Внесите свою лепту в развитие PiratBit!
    Комментировать посты могут только пользователи прошедшие не сложную регистрацию
    Показать сообщения:    

    Брест. Крепостные Герои через торрент
    Скачать бесплатно Брест. Крепостные Герои
    Брест. Крепостные Герои скачать торрент
    Брест. Крепостные Герои смотреть онлайн
    Cкачать фильм Брест. Крепостные Герои бесплатно
    Брест. Крепостные Герои скачать торрент в хорошем качестве
    Брест. Крепостные Герои смотреть онлайн бесплатно в хорошем качестве


    Вы не можете начинать темы
    Вы не можете отвечать на сообщения
    Вы не можете редактировать свои сообщения
    Вы не можете удалять свои сообщения
    Вы не можете голосовать в опросах
    Вы не можете прикреплять файлы к сообщениям
    Вы можете скачивать файлы