новый адрес пиратбит piratbit
MEGA NEWS Получи личный уникальный адрес сайта и защити себя от блокировок. Внимание количество ограничено!!!

iTunes

1+1

iTunes

мы

iTunes

1

iTunes

Чернобыль

iTunes

Ральф против интернета

Лицензия

ПШазам

Лицензия

Игра престолов

Лицензия

30
pack

ВАЖНО

!!Акция!!

Alien_RageХит недели

RePack

Resident Evil 21

ИГРА 18+

pack

RePack

Metro:Exodus

!!Акция!!

Alien_Rage

RePack

fifa19

RePack

Assassins Creed: Odyssey

RePack

NEED FOR SPEED™ PAYBACK

3 сезон

9 сезон

Бесстыжие 9 сезон

Все сериалы

все сериалы на PB.wtf

RePack

FAR CRY 5
Ребята, катастрофически не хватает 1900р. для оплаты серверов за АВГУСТ (всвязи с блокировками трафик упал в 3 раза), 1-2р., выручайте.
  

Становясь богом в центральной Флориде / On becoming a god in central Florida / Сезон: 1 / Серии: 1-8 из 9 (Чарли МакДауэлл, Триша Брок, Родмен Флендер) [2019, Комедия, WEBRip 1080p] MVO [HDRezka Studio] piratbit.xyz

Становясь богом в центральной Флориде через торрент piratbit.xyz

Размер: 33.27 GB | Добавлен: 12 д. назад | Торрент скачан:3 раза
Скачать  

10-09-2019 07:56 Становясь богом в центральной Флориде Скачать торрент  

Становясь богом в центральной Флориде / On becoming a god in central Florida Год выпуска: 2019
Страна: США
Жанр: Комедия
Продолжительность: ~ 00:45:00
Перевод: Профессиональный (многоголосый закадровый) | HDRezka Studio
Субтитры: английские

Режиссёр: Чарли МакДауэлл, Триша Брок, Родмен Флендер

В ролях: Кирстен Данст, Теодор Пеллерен, Мэл Родригез, Бет Дитто, Тед Левайн, Усман Элли, Эрик Аллан Крамер, Купер Джек Рубин, Александр Скарсгард, Мэри Стинберген и др

Описание: История расскажет о культе свободного предпринимательства и неутомимом стремлении одной женщины осуществить «американскую мечту». Оставшаяся без гроша в кармане и недавно овдовевшая работница аквапарка Кристал Джилл путём обмана и жульничества движется к вершине финансовой пирамиды «Основатели американской торговли», невзирая на то что этот многомиллиардный бизнес однажды уже разрушил её жизнь.

rating

Качество: WEBRip 1080p
Формат: MKV

Видео: 1920x1080 (16:9), 23,976 fps, AVC (х264), High@L4, ~12100 kbps avg, 0.243 bit/pixel
Аудио#1 RUS: 48 kHz, AC3 Dolby Digital, 2/0 (L,R) ch, ~384 kbps
Аудио#2 ENG: 48 kHz, Е-AC3 Dolby Digital, 3/2 (L,C,R,l,r) + LFE ch, ~640 kbps
скриншот  скриншот  скриншот  скриншот  

Общее
Уникальный идентификатор: 136701833720304418148601586620068065591 (0x66D7D0C4B41B8AED4DA998622DD8F137)
Полное имя: On.Becoming.a.God.in.Central.Florida.S01Е01.1080p.WEBRip.HDRezka.mkv
Формат: Matroska
Версия формата: Version 4
Размер файла: 4,06 Гбайт
Продолжительность: 44 м. 21 с.
Общий поток: 13,1 Мбит/сек
Дата кодирования: UTC 2019-09-05 13:39:20
Программа кодирования: mkvmerge v37.0.0 ('Leave It') 64-bit
Библиотека кодирования: libebml v1.3.9 + libmatroska v1.5.2

Видео
Идентификатор: 1
Формат: AVC
Формат/Информация: Advanced Video Codec
Профиль формата: High@L4
Настройки формата: CABAC / 4 Ref Frames
Параметр CABAC формата: Да
Параметр RefFrames формата: 4 кадра
Идентификатор кодека: V_MPEG4/ISO/AVC
Продолжительность: 44 м. 21 с.
Битрейт: 12,1 Мбит/сек
Ширина: 1920 пикселей
Высота: 1080 пикселей
Соотношение сторон: 16:9
Режим частоты кадров: Постоянный
Частота кадров: 23,976 (24000/1001) кадра/сек
Цветовое пространство: YUV
Субдискретизация насыщенности: 4:2:0
Битовая глубина: 8 бит
Тип развёртки: Прогрессивная
Бит/(Пиксели*Кадры): 0.243
Размер потока: 3,74 Гбайт (92%)
Язык: English
Default: Да
Forced: Нет
Цветовой диапазон: Limited
Основные цвета: BT.709
Характеристики трансфера: BT.709
Коэффициенты матрицы: BT.709

Аудио #1
Идентификатор: 2
Формат: AC-3
Формат/Информация: Audio Coding 3
Коммерческое название: Dolby Digital
Идентификатор кодека: A_AC3
Продолжительность: 44 м. 21 с.
Вид битрейта: Постоянный
Битрейт: 384 Кбит/сек
Каналы: 2 канала
ChannelLayout: L R
Частота: 48,0 КГц
Частота кадров: 31,250 кадров/сек (1536 SPF)
Битовая глубина: 16 бит
Метод сжатия: С потерями
Размер потока: 122 Мбайт (3%)
Заголовок: HDRezka Studio
Язык: Russian
Default: Да
Forced: Нет

Аудио #2
Идентификатор: 3
Формат: E-AC-3
Формат/Информация: Enhanced AC-3
Коммерческое название: Dolby Digital Plus
Идентификатор кодека: A_EAC3
Продолжительность: 44 м. 21 с.
Вид битрейта: Постоянный
Битрейт: 640 Кбит/сек
Каналы: 6 каналов
ChannelLayout: L R C LFE Ls Rs
Частота: 48,0 КГц
Частота кадров: 31,250 кадров/сек (1536 SPF)
Метод сжатия: С потерями
Задержка видео: 24 мс.
Размер потока: 203 Мбайт (5%)
Язык: English
Default: Нет
Forced: Нет

Текст
Идентификатор: 4
Формат: UTF-8
Идентификатор кодека: S_TEXT/UTF8
Идентификатор кодека/Информация: UTF-8 Plain Text
Продолжительность: 44 м. 5 с.
Битрейт: 80 бит/сек
ElementCount: 948
Размер потока: 26,1 Кбайт (0%)
Заголовок: SDH
Язык: English
Default: Нет
Forced: Нет

Внимание! Раздача ведётся путём добавления новых серий; при каждом добавлении создаётся новый торрент. Чтобы начать докачку новой серии, пользователям необходимо сделать следующее:
(1) остановить скачивание,
(2) удалить старый торрент у себя из клиента (старые серии удалять не надо),
(3) скачать новый торрент и запустить его у себя в клиенте вместо старого, при этом указать клиенту путь в старую папку куда и должно происходить скачивание новых серий.

Ваш клиент при этом должен произвести хеширование (проверку) старой папки (если не производит сам - помогите ему сделать это), и будет докачивать только те серии которых у вас ещё нет. Старые серии при этом не удаляются, а продолжают раздаваться!

Eсли вы уже удалили старые серии, то предотвратить повторную закачку старых серий можно, отжав галочку в соответсвующих местах при запуске нового торрента. По возможности, желательно не удалять старые серии как можно дольше чтобы релизёр не столько продолжал раздавать старые серии, а смог сконцентрироваться на новых.
piratbit.xyz



Скачать Становясь богом в центральной Флориде через торрент https://a.radikal.ru/a14/1909/a1/b55d3c8deb82.png Скачать фильм Становясь богом в центральной Флориде через торрент бесплантно в хорошем качестве Описание: История расскажет о культе свободного предпринимательства и неутомимом стремлении одной женщины осуществить «американскую мечту». ... 10 10 2
Торрент: Зарегистрирован [2019-10-09 18:34] · скачан: 3 раз
Статус: √ проверено
Размер: 33.27 GB
Как cкачать? Как скачать Становясь богом в центральной Флориде через торрент | qTorrent


>> Регистрируемся здесь <<






Отзывы и комментарии о схеме читаем и пишем здесь: ---> Отзывы и комментарии о схеме

Новые благодарочки в телеграм довольных пользователей:
скриншот   скриншот   скриншот   скриншот   скриншот
    Дорогой пользователь! Огромная просьба, поблагодарите релизера, оцените раздачу и оставьте свои комментарий, если Вы скачали Становясь богом в центральной Флориде через торрент бесплатно! Внесите свою лепту в развитие PiratBit!
    Комментировать посты могут только пользователи прошедшие не сложную регистрацию
    Показать сообщения:    

    Становясь богом в центральной Флориде через торрент
    Скачать бесплатно Становясь богом в центральной Флориде
    Становясь богом в центральной Флориде скачать торрент
    Становясь богом в центральной Флориде смотреть онлайн
    Cкачать фильм Становясь богом в центральной Флориде бесплатно
    Становясь богом в центральной Флориде скачать торрент в хорошем качестве
    Становясь богом в центральной Флориде смотреть онлайн бесплатно в хорошем качестве


    Вы не можете начинать темы
    Вы не можете отвечать на сообщения
    Вы не можете редактировать свои сообщения
    Вы не можете удалять свои сообщения
    Вы не можете голосовать в опросах
    Вы не можете прикреплять файлы к сообщениям
    Вы можете скачивать файлы