Ссылка на приватное зеркало всего за 1$. Внимание количество ограничено!!!

iTunes

1+1

iTunes

мы

MV0

1

WEB-DLRip

Джокер

Пифагор

Ведьмак / The Witcher сериал

iTunes

ПШазам

iTunes

Оно 2

iTunes

30
pack

Вам бонус

ВАЖНО

!!Акция!!

Alien_RageХит недели

RePack

Resident Evil 21

ИГРА 18+

pack

RePack

jed

!!Акция!!

Alien_Rage

RePack

fifa19

RePack

Assassins Creed: Odyssey

RePack

NEED FOR SPEED™ PAYBACK

4 сезон

9 сезон

Бесстыжие 9 сезон

Все сериалы

все сериалы на PB.wtf

RePack

FAR CRY 5
  

Женский Квартал / Сезон: 1 / Серии: 1-13 из 20 [2018-2020, Юмористическое шоу, концерт, сатира, WEBRip] piratbit.xyz

Женский Квартал через торрент piratbit.xyz

Размер: 15.52 GB | Добавлен: 1 мес. 26 д. назад | Торрент скачан:5 раз
Скачать  

07-09-2019 09:58 Женский Квартал Скачать торрент  

Женский Квартал
Год выпуска: 2018-2020
Страна: Украина
Жанр: Юмористическое шоу, концерт, сатира
Продолжительность: ~ 01:40:00
Перевод: Не требуется
Субтитры: отсутствуют

В ролях: Елена Кравец, Вера Кекелия, Марта Адамчук, Элина Мбани, Лали Эргемлидзе, Ольга Жуковцова-Кияшко, Анастасия Оруджева, Татьяна Песик, Ирина Сопонару, Лера Товстолес, Екатерина Никитина, Александра Машлятина, Настя Короткая, Анастасия Евтушенко.

Описание: Студия «Квартал 95» придумала и запустила в производство новый масштабный развлекательный телепроект «Женский Квартал». Съемки первых выпусков состоялись в мае в Турции, в рамках ежегодного фестиваля «Весело 2018». «Женский Квартал» – это большое концертное юмористическое и музыкальное шоу, в котором правят бал представительницы прекрасного пола. Как говорят авторы нового проекта – это «территория женщин, где они главные, они всегда правы и элегантно шутят о том, что им на самом деле интересно». 14 красивых, умных и талантливых актрис разных жанров будут юморить о том, что важно для каждой современной женщины – о семье, замужестве, быте, красоте, любви и сексе, и, конечно, о мужчинах. Проект будет насыщен яркими танцевальными и вокальными номерами, юмористическими сценками и остроумными шутками, которые помогут с присущей женщинам легкостью посмотреть на актуальные события

Качество: WEBRip
Формат: AVI

Видео: XviD build 73, 720x400 (16:9), 25.000 fps, ~ 1900 Kbps (0.250 bit/pixel)
Аудио: 48.0 kHz, AC3, 2/0 ch, 192 kbps
скриншот  скриншот  скриншот  

скриншот  скриншот  скриншот  

Общее
Полное имя : C:\Zhenskij.Kvartal.XviD.WEBRip.GeneralFilm\Zhenskij.Kvartal.e01.avi
Формат : AVI
Формат/Информация : Audio Video Interleave
Размер файла : 1,45 Гбайт
Продолжительность : 1 ч. 48 м.
Общий поток : 1919 Кбит/сек
Программа кодирования : VirtualDubMod 1.5.10.3 | www.virtualdub-fr.org || (build 2550/release)
Библиотека кодирования : VirtualDubMod build 2550/release

Видео
Идентификатор : 0
Формат : MPEG-4 Visual
Профиль формата : Advanced Simple@L5
Настройки формата : BVOP1 / Custom Matrix
Параметр BVOP формата : 1
Параметр QPel формата : Нет
Параметр GMC формата : Без точки перехода
Параметр матрицы формата : Выборочная
Идентификатор кодека : XVID
Идентификатор кодека/Подсказка : XviD
Продолжительность : 1 ч. 48 м.
Битрейт : 1842 Кбит/сек
Ширина : 720 пикселей
Высота : 400 пикселей
Соотношение сторон : 16:9
Частота кадров : 25,000 кадров/сек
Цветовое пространство : YUV
Субдискретизация насыщенности : 4:2:0
Битовая глубина : 8 бит
Тип развёртки : Прогрессивная
Метод сжатия : С потерями
Бит/(Пиксели*Кадры) : 0.228
Размер потока : 1,24 Гбайт (86%)
Библиотека кодирования : XviD 73

Аудио
Идентификатор : 1
Формат : AC-3
Формат/Информация : Audio Coding 3
Коммерческое название : Dolby Digital
Идентификатор кодека : 2000
Продолжительность : 1 ч. 48 м.
Вид битрейта : Постоянный
Битрейт : 192 Кбит/сек
Каналы : 2 канала
ChannelLayout : L R
Частота : 44,1 КГц
Частота кадров : 28,711 кадров/сек (1536 SPF)
Битовая глубина : 16 бит
Метод сжатия : С потерями
Размер потока : 149 Мбайт (10%)
Выравнивание : Разделение по промежуткам
ServiceKind/String : Complete Main

Раздача ведётся путём добавления новых серий, при каждом добавлении создаётся новый торрент. Чтобы начать докачку новой серии, пользователям необходимо сделать следующее:

- Остановить скачивание.
- Удалить старый торрент у себя из клиента (старые серии удалять не надо).
- Скачать новый торрент и запустить его у себя в клиенте вместо старого, при этом указать клиенту путь в старую папку куда и должно происходить скачивание новых серий.

Ваш клиент при этом должен произвести хеширование (проверку) старой папки (если не производит сам - помогите ему сделать это), и будет докачивать только те серии которых у вас ещё нет. Старые серии при этом не удаляются, а продолжают раздаваться!
Если вы уже удалили старые серии, то предотвратить повторную закачку старых серий можно, отжав галочку в соответствующих местах при запуске нового торрента. По возможности, желательно не удалять старые серии как можно дольше, чтобы релизер не столько продолжал раздавать старые серии, а смог сконцентрироваться на новых.
piratbit.xyz



Скачать Женский Квартал через торрент http://i89.fastpic.ru/big/2018/1008/e9/a7cab13a29b5571582466b8d97de93e9.jpg Скачать фильм Женский Квартал через торрент бесплантно в хорошем качестве Описание: Студия «Квартал 95» придумала и запустила в новый масштабный развлекательный телепроект «Женский Квартал». Съемки ... 10 10 6
Торрент: Зарегистрирован [2019-12-29 10:03] · скачан: 5 раз
Статус: √ проверено
Размер: 15.52 GB
Как cкачать? Как скачать Женский Квартал через торрент | qTorrent



Последний раз редактировалось: bober100 (2019-12-29 10:03), всего редактировалось 1 раз

28-11-2019 20:33  

Отключить всю рекламу на сайте

23-12-2019 17:26 Женский Квартал Скачать торрент  

Delpiratbit.xyz



    Дорогой пользователь! Огромная просьба, поблагодарите релизера, оцените раздачу и оставьте свои комментарий, если Вы скачали Женский Квартал через торрент бесплатно! Внесите свою лепту в развитие PiratBit!
    Комментировать посты могут только пользователи прошедшие не сложную регистрацию
    Показать сообщения:    

    Женский Квартал через торрент
    Скачать бесплатно Женский Квартал
    Женский Квартал скачать торрент
    Женский Квартал смотреть онлайн
    Cкачать фильм Женский Квартал бесплатно
    Женский Квартал скачать торрент в хорошем качестве
    Женский Квартал смотреть онлайн бесплатно в хорошем качестве


    Вы не можете начинать темы
    Вы не можете отвечать на сообщения
    Вы не можете редактировать свои сообщения
    Вы не можете удалять свои сообщения
    Вы не можете голосовать в опросах
    Вы не можете прикреплять файлы к сообщениям
    Вы можете скачивать файлы