MEGA SALE -50% FORZA HORIZON 4 ULTIMATE+ВСЕ DLC+ОНЛАЙН всего за 599р. 299 руб. (супер цена). Внимание количество ограничено!!!

iTunes

1+1

iTunes

мы

iTunes

1

iTunes

Чернобыль

iTunes

Ральф против интернета

Лицензия

ПШазам

Лицензия

Игра престолов

Лицензия

30
pack

ВАЖНО

!!Акция!!

Alien_RageХит недели

RePack

Resident Evil 21

ИГРА 18+

pack

RePack

Metro:Exodus

!!Акция!!

Alien_Rage

RePack

fifa19

RePack

Assassins Creed: Odyssey

RePack

NEED FOR SPEED™ PAYBACK

3 сезон

9 сезон

Бесстыжие 9 сезон

Все сериалы

все сериалы на PB.wtf

RePack

FAR CRY 5
Ребята, катастрофически не хватает 7730р. для оплаты серверов за АВГУСТ (всвязи с блокировками трафик упал в 3 раза), 1-2р., выручайте.
  

Острые козырьки / Peaky Blinders / Сезон: 5 / Серии: 1-5 из 6 (Колм МакКарти) [2019, драма, криминал, WEBRip 720p] MVO [LostFilm] piratbit.xyz

Острые козырьки через торрент piratbit.xyz

Раздают: 3 [ 399 KB/s ] Качают: 4 [ 0 KB/s ]
Размер: 7.9 GB | Добавлен: 4 д. назад | Торрент скачан:12 раз
Скачать  

27-08-2019 20:20 Острые козырьки Скачать торрент  

Острые козырьки | Peaky Blinders
«The streets are theirs»
Производство: Великобритания
Год выпуска: 2019
Жанр: драма, криминал
Продолжительность: ~ 00:56:00 серия
Премьера (мир): 12 сентября 2013
Премьера (РФ): 25 октября 2016
Перевод: Профессиональный (многоголосый закадровый) |LostFilm|
Оригинальная аудиодорожка: Английская
Субтитры: Rus (PhysKIds), Eng (SDH)

Режиссер: Колм МакКарти, Тим Милантс, Дэвид Кэффри

В ролях: Киллиан Мёрфи, Хелен Маккрори, Пол Андерсон, Софи Рандл, Нед Деннехи, Джо Коул, Йен Пек, Финн Коул, Гарри Киртон, Пакки Ли

Описание:
Британский сериал о криминальном мире Бирмингема 20-х годов прошлого века, в котором многолюдная семья Шелби стала одной из самых жестоких и влиятельных гангстерских банд послевоенного времени. Фирменным знаком группировки, промышлявшей грабежами и азартными играми, стали зашитые в козырьки лезвия.



Качество видео: WEBRip 720p
Формат: MKV

Видео: AVC, 1280 x 640 (2.000), 25.000 fps, ~2732 kbps
Аудио Rus: AC-3, 48 kHz, 2 ch, 384kbps |LostFilm|
Аудио Eng: E-AC-3, 48 kHz, 6 ch, 640 kbps |Original|


Реклама: Отсутствует
Общее
Уникальный идентификатор : 71637538111351411102545218464358126880 (0x35E4E35298E286885AAB0163F0C4D520)
Полное имя : E:\_Сериалы\_Сериалы\Острые козырьки\Peaky.Blinders.S05.720p.WEBRip.LostFilm\Peaky.Blinders.S05E01.720p.WEBRip.LostFilm.mkv
Формат : Matroska
Версия формата : Version 4
Размер файла : 1,49 Гбайт
Продолжительность : 56 м. 37 с.
Общий поток : 3758 Кбит/сек
Дата кодирования : UTC 2019-08-28 14:33:23
Программа кодирования : mkvmerge v37.0.0 ('Leave It') 64-bit
Библиотека кодирования : libebml v1.3.9 + libmatroska v1.5.2

Видео
Идентификатор : 1
Формат : AVC
Формат/Информация : Advanced Video Codec
Профиль формата : High@L3.1
Настройки формата : CABAC / 4 Ref Frames
Параметр CABAC формата : Да
Параметр RefFrames формата : 4 кадра
Идентификатор кодека : V_MPEG4/ISO/AVC
Продолжительность : 56 м. 37 с.
Вид битрейта : Постоянный
Битрейт : 2732 Кбит/сек
Номинальный битрейт : 6000 Кбит/сек
Ширина : 1280 пикселей
Высота : 640 пикселей
Соотношение сторон : 2,000
Режим частоты кадров : Постоянный
Частота кадров : 25,000 кадров/сек
Цветовое пространство : YUV
Субдискретизация насыщенности : 4:2:0
Битовая глубина : 8 бит
Тип развёртки : Прогрессивная
Бит/(Пиксели*Кадры) : 0.133
Размер потока : 1,08 Гбайт (73%)
Язык : English
Default : Да
Forced : Нет
Цветовой диапазон : Limited
Основные цвета : BT.709
Характеристики трансфера : BT.709
Коэффициенты матрицы : BT.709

Аудио #1
Идентификатор : 2
Формат : AC-3
Формат/Информация : Audio Coding 3
Коммерческое название : Dolby Digital
Идентификатор кодека : A_AC3
Продолжительность : 56 м. 37 с.
Вид битрейта : Постоянный
Битрейт : 384 Кбит/сек
Каналы : 2 канала
ChannelLayout : L R
Частота : 48,0 КГц
Частота кадров : 31,250 кадров/сек (1536 SPF)
Битовая глубина : 16 бит
Метод сжатия : С потерями
Размер потока : 156 Мбайт (10%)
Язык : Russian
ServiceKind/String : Complete Main
Default : Да
Forced : Нет

Аудио #2
Идентификатор : 3
Формат : E-AC-3
Формат/Информация : Enhanced AC-3
Коммерческое название : Dolby Digital Plus
Идентификатор кодека : A_EAC3
Продолжительность : 56 м. 37 с.
Вид битрейта : Постоянный
Битрейт : 640 Кбит/сек
Каналы : 6 каналов
ChannelLayout : L R C LFE Ls Rs
Частота : 48,0 КГц
Частота кадров : 31,250 кадров/сек (1536 SPF)
Метод сжатия : С потерями
Размер потока : 259 Мбайт (17%)
Язык : English
ServiceKind/String : Complete Main
Default : Нет
Forced : Нет

Текст #1
Идентификатор : 4
Формат : UTF-8
Идентификатор кодека : S_TEXT/UTF8
Идентификатор кодека/Информация : UTF-8 Plain Text
Продолжительность : 54 м. 45 с.
Битрейт : 94 бит/сек
ElementCount : 715
Размер потока : 37,9 Кбайт (0%)
Язык : Russian
Default : Нет
Forced : Нет

Текст #2
Идентификатор : 5
Формат : UTF-8
Идентификатор кодека : S_TEXT/UTF8
Идентификатор кодека/Информация : UTF-8 Plain Text
Продолжительность : 54 м. 42 с.
Битрейт : 60 бит/сек
ElementCount : 740
Размер потока : 24,0 Кбайт (0%)
Язык : English
Default : Нет
Forced : Нет

Текст #3
Идентификатор : 6
Формат : UTF-8
Идентификатор кодека : S_TEXT/UTF8
Идентификатор кодека/Информация : UTF-8 Plain Text
Продолжительность : 54 м. 42 с.
Битрейт : 60 бит/сек
ElementCount : 740
Размер потока : 24,0 Кбайт (0%)
Заголовок : SDH
Язык : English
Default : Нет
Forced : Нет
Раздача ведётся путём добавления новых серий; при каждом добавлении создаётся новый торрент.
Чтобы начать докачку новой серии, пользователям необходимо сделать следующее:
1. остановить скачивание,
2. удалить старый торрент у себя из клиента (старые серии удалять не надо),
3. скачать новый торрент и запустить его у себя в клиенте вместо старого, при этом указать клиенту путь в старую папку, куда и должно происходить скачивание новых серий.

Ваш клиент при этом должен произвести хеширование (проверку) старой папки (если не производит сам - помогите ему сделать это), и будет докачивать только те серии которых у вас ещё нет. Старые серии при этом не удаляются, а продолжают раздаваться!

Eсли вы уже удалили старые серии, то предотвратить повторную закачку старых серий можно, отжав галочку в соответствующих местах при запуске нового торрента. По возможности, желательно не удалять старые серии как можно дольше, чтобы релизёр не столько продолжал раздавать старые серии, а смог сконцентрироваться на новых.

Совет для тех, кто не хочет ждать перехеширования:
Создайте ещё одну папку рядом с папкой сериала (рядом, а не в ней!!!). Каждую новую серию после удачной загрузки копируйте в новую папку так чтобы ваша основная папка всегда была пуста. Когда ваш новый торрент предложит вам закачать все файлы, выберете только последнюю. Для сидирования же укажите адрес новой папки.

Как закачать отдельный файл из торрента или докачать ранее пропущенные файлы торрента!
1. Открыть торрент
2. Снять галки с тех файлов торрента, которые мы не хотим закачивать. Оставляем только на нужных нам файлах (файле).
3. Нажать О.К.

В клиенте utorrent

Инструкция

1) Открыть торрент


2) Снять галки с тех файлов торрента, которые мы не хотим закачивать:

* либо вручную, снимая с каждого файла галку( скрин №1)
* либо, нажав кнопку "Снять метки (Select None)", сняв сразу со всех файлов(скрин №2)
№1

№2

Оставляем только на нужных нам файлах (файле).

3)Нажать О.К
Приятного просмотра!!!piratbit.xyz



Скачать Острые козырьки через торрент http://i87.fastpic.ru/big/2019/0828/fc/f2ad3b6a9cff9b3c2e6df21b5ec583fc.png Скачать фильм Острые козырьки через торрент бесплантно в хорошем качестве Описание:Британский сериал о криминальном мире Бирмингема 20-х годов прошлого века, в котором многолюдная семья Шелби стала одной из самых ... 7.8 10 4
Торрент: Зарегистрирован [2019-09-18 18:39] · скачан: 12 раз
Статус: √ проверено
Размер: 7.9 GB
Как cкачать? Как скачать Острые козырьки через торрент | qTorrent

% Раздел Тема Автор DL S | L
T Зарубежные сериалы [ 18.48 GB ] Острые козырьки / Peaky Blinders / Сезон: 5 / Серии: 1-6 из 6 [2019 HDTV 1080p] [MVO] killermax2013 Скачать
4 | 4
T Зарубежные сериалы [ 10.09 GB ] Острые козырьки / Peaky Blinders / Сезон: 5 / Серии: 1-6 из 6 [2019 WEBRip 720p] DVO [Kerob] bober100 Скачать
3 | 13
Зарубежные сериалы [ 1.94 GB ] Острые козырьки / Peaky Blinders / Сезон: 5 / Серии: 1- из 6 [2019 WEB-DL 720p] 3xMVO [AlexFilm LostFilm TVShows] +DVO [Кубик в Кубе] bober100 Скачать
2 | 0
Зарубежные сериалы [ 1.1 GB ] Острые козырьки / Peaky Blinders / Сезон: 5 / Серии: 1- из 6 [2019 WEB-DLRip] DVO [Кубик в Кубе] bober100 Скачать
1 | 0
Зарубежные сериалы [ 6.4 GB ] Острые козырьки / Peaky Blinders / Сезон: 5 / Серии: 1-4 из 6 [2019 WEB-DL 720p] MVO [TVShows] bober100 Скачать
1 | 0
Зарубежные сериалы [ 17.1 GB ] Острые козырьки / Peaky Blinders / Сезон: 5 / Серии: 1-5 из 6 [2019 WEB-DL 1080p] [MVO] killermax2013 Скачать
2 | 1
Зарубежные сериалы [ 4.79 GB ] Острые козырьки / Peaky Blinders / Сезон: 5 / Серии: 1-5 из 6 [2019 WEB-DLRip] MVO [AlexFilm] bober100 Скачать
2 | 2


>> Регистрируемся здесь <<






Отзывы и комментарии о схеме читаем и пишем здесь: ---> Отзывы и комментарии о схеме

Новые благодарочки в телеграм довольных пользователей:
скриншот   скриншот   скриншот   скриншот   скриншот
    Дорогой пользователь! Огромная просьба, поблагодарите релизера, оцените раздачу и оставьте свои комментарий, если Вы скачали Острые козырьки через торрент бесплатно! Внесите свою лепту в развитие PiratBit!
    Комментировать посты могут только пользователи прошедшие не сложную регистрацию
    Показать сообщения:    

    Острые козырьки через торрент
    Скачать бесплатно Острые козырьки
    Острые козырьки скачать торрент
    Острые козырьки смотреть онлайн
    Cкачать фильм Острые козырьки бесплатно
    Острые козырьки скачать торрент в хорошем качестве
    Острые козырьки смотреть онлайн бесплатно в хорошем качестве


    Вы не можете начинать темы
    Вы не можете отвечать на сообщения
    Вы не можете редактировать свои сообщения
    Вы не можете удалять свои сообщения
    Вы не можете голосовать в опросах
    Вы не можете прикреплять файлы к сообщениям
    Вы можете скачивать файлы