MEGA SALE -50% FORZA HORIZON 4 ULTIMATE+ВСЕ DLC+ОНЛАЙН всего за 599р. 299 руб. (супер цена). Внимание количество ограничено!!!

iTunes

1+1

iTunes

мы

iTunes

1

iTunes

Чернобыль

iTunes

Ральф против интернета

Лицензия

ПШазам

Лицензия

Игра престолов

Лицензия

30
pack

ВАЖНО

!!Акция!!

Alien_RageХит недели

RePack

Resident Evil 21

ИГРА 18+

pack

RePack

Metro:Exodus

!!Акция!!

Alien_Rage

RePack

fifa19

RePack

Assassins Creed: Odyssey

RePack

NEED FOR SPEED™ PAYBACK

3 сезон

9 сезон

Бесстыжие 9 сезон

Все сериалы

все сериалы на PB.wtf

RePack

FAR CRY 5
Ребята, катастрофически не хватает 7730р. для оплаты серверов за АВГУСТ (всвязи с блокировками трафик упал в 3 раза), 1-2р., выручайте.
  

Тайная жизнь домашних животных 2 / The Secret Life of Pets 2 (Крис Рено, Джонатан дель Валь) [2019, мультфильм, комедия, приключения, семейный, BD Remux 1080p] DUB [iTunes] +MVO [HDRezka Studio] piratbit.xyz

Тайная жизнь домашних животных 2 через торрент piratbit.xyz

Раздают: 2 [ 0 KB/s ]
Размер: 21.94 GB | Добавлен: 12 д. назад | Торрент скачан:52 раза
Скачать  

20-08-2019 05:35 Тайная жизнь домашних животных 2 Скачать торрент  

Тайная жизнь домашних животных 2
The Secret Life of Pets 2
«Обхохочешься»
Страна: США, Франция, Япония
Жанр: мультфильм, комедия, приключения, семейный
Продолжительность: 01:26:06
Год выпуска: 2019
Перевод:

Дублированный | iTunes
Профессиональный многоголосый | HDRezka Studio

Субтитры: Русские (Full), английские

Режиссёр: Крис Рено / Chris Renaud, Джонатан дель Валь / Jonathan del Val

rating

В ролях: Пэттон Освальт, Кевин Харт, Харрисон Форд, Эрик Стоунстрит, Дженни Слейт, Тиффани Хэддиш, Лэйк Белл, Дэна Карви, Бобби Мойнахан, Хэннибал Бёресс

Описание: Почему человек так долго спит утром? Чем вкусно пахнет? Дай мне, дай, дай, дай! Как заставить человека чесать за ушком весь день? Ой, что это? Ааай, опять мой хвост! Где взять еще вкусняшек? О, мячик-мячик-мячик! Узнайте, что действительно беспокоит ваших животных.

Качество: BD Remux 1080p
Формат: MKV

Видео: MPEG-4 AVC, 1920x1080, 32.1 Mbit/s, 23.976 fps
Аудио#1: 48 kHz, AC3, 5.1, 384 Kbps | iTunes | RUS |
Аудио#2: 48 kHz, AC3, 2.0, 192 Kbps | HDRezka Studio | RUS |
Аудио#3: 48 kHz, TrueHD, 7.1, 3318 Kbps | Оригинал | ENG |
Аудио#4: 48 kHz, AC3, 5.1, 448 Kbps | Оригинал | ENG |
скриншот  скриншот  скриншот  скриншот  

General
Unique ID : 150534367162076237242558274923057425450 (0x713FDD525770989EC87C243D5E80AC2A)
Complete name : C:\Video\The.Secret.Life.of.Pets.2.2019.D.MVO.BDREMUX.1080p.seleZen.mkv
Format : Matroska
Format version : Version 4
File size : 21.9 GiB
Duration : 1 h 26 min
Overall bit rate mode : Variable
Overall bit rate : 36.5 Mb/s
Movie name : The Secret Life of Pets 2 2019 from селезень
Encoded date : UTC 2019-09-03 21:51:48
Writing application : mkvmerge v36.0.0 ('Is That Jazz?') 64-bit
Writing library : libebml v1.3.9 + libmatroska v1.5.2

Video
ID : 1
Format : AVC
Format/Info : Advanced Video Codec
Format profile : High@L4.1
Format settings : CABAC / 4 Ref Frames
Format settings, CABAC : Yes
Format settings, Reference : 4 frames
Codec ID : V_MPEG4/ISO/AVC
Duration : 1 h 26 min
Bit rate mode : Variable
Bit rate : 32.1 Mb/s
Maximum bit rate : 35.0 Mb/s
Width : 1 920 pixels
Height : 1 080 pixels
Display aspect ratio : 16:9
Frame rate mode : Constant
Frame rate : 23.976 (24000/1001) FPS
Color space : YUV
Chroma subsampling : 4:2:0
Bit depth : 8 bits
Scan type : Progressive
Bits/(Pixel*Frame) : 0.645
Stream size : 19.3 GiB (88%)
Language : English
Default : Yes
Forced : No

Audio #1
ID : 2
Format : AC-3
Format/Info : Audio Coding 3
Commercial name : Dolby Digital
Codec ID : A_AC3
Duration : 1 h 26 min
Bit rate mode : Constant
Bit rate : 384 kb/s
Channel(s) : 6 channels
Channel layout : L R C LFE Ls Rs
Sampling rate : 48.0 kHz
Frame rate : 31.250 FPS (1536 SPF)
Bit depth : 16 bits
Compression mode : Lossy
Stream size : 236 MiB (1%)
Title : iTunes
Language : Russian
Service kind : Complete Main
Default : Yes
Forced : Yes

Audio #2
ID : 3
Format : AC-3
Format/Info : Audio Coding 3
Commercial name : Dolby Digital
Codec ID : A_AC3
Duration : 1 h 26 min
Bit rate mode : Constant
Bit rate : 192 kb/s
Channel(s) : 2 channels
Channel layout : L R
Sampling rate : 48.0 kHz
Frame rate : 31.250 FPS (1536 SPF)
Bit depth : 16 bits
Compression mode : Lossy
Stream size : 118 MiB (1%)
Title : MVO [HDRezka Studio]
Language : Russian
Service kind : Complete Main
Default : No
Forced : No

Audio #3
ID : 4
Format : MLP FBA 16-ch
Format/Info : Meridian Lossless Packing FBA with 16-channel presentation
Commercial name : Dolby TrueHD with Dolby Atmos
Codec ID : A_TRUEHD
Duration : 1 h 26 min
Bit rate mode : Variable
Bit rate : 3 318 kb/s
Maximum bit rate : 4 644 kb/s
Channel(s) : 8 channels
Channel layout : L R C LFE Ls Rs Lb Rb
Sampling rate : 48.0 kHz
Frame rate : 1 200.000 FPS (40 SPF)
Compression mode : Lossless
Stream size : 1.99 GiB (9%)
Title : Original
Language : English
Default : No
Forced : No
Number of dynamic objects : 11
Bed channel count : 1 channel
Bed channel configuration : LFE

Audio #4
ID : 5
Format : AC-3
Format/Info : Audio Coding 3
Commercial name : Dolby Digital
Codec ID : A_AC3
Duration : 1 h 26 min
Bit rate mode : Constant
Bit rate : 448 kb/s
Channel(s) : 6 channels
Channel layout : L R C LFE Ls Rs
Sampling rate : 48.0 kHz
Frame rate : 31.250 FPS (1536 SPF)
Bit depth : 16 bits
Compression mode : Lossy
Stream size : 276 MiB (1%)
Language : English
Service kind : Complete Main
Default : No
Forced : No

Text #1
ID : 6
Format : UTF-8
Codec ID : S_TEXT/UTF8
Codec ID/Info : UTF-8 Plain Text
Duration : 1 h 25 min
Bit rate : 74 b/s
Count of elements : 1157
Stream size : 46.9 KiB (0%)
Title : Full
Language : Russian
Default : No
Forced : No

Text #2
ID : 7
Format : UTF-8
Codec ID : S_TEXT/UTF8
Codec ID/Info : UTF-8 Plain Text
Duration : 1 h 25 min
Bit rate : 53 b/s
Count of elements : 1324
Stream size : 33.3 KiB (0%)
Title : Full
Language : English
Default : No
Forced : No

Menu
00:00:00.000 : en:Chapter 01
00:05:34.542 : en:Chapter 02
00:10:07.815 : en:Chapter 03
00:13:26.305 : en:Chapter 04
00:16:39.790 : en:Chapter 05
00:19:56.945 : en:Chapter 06
00:24:10.073 : en:Chapter 07
00:28:15.735 : en:Chapter 08
00:30:54.269 : en:Chapter 09
00:35:15.113 : en:Chapter 10
00:39:55.976 : en:Chapter 11
00:45:47.327 : en:Chapter 12
00:49:51.822 : en:Chapter 13
00:56:54.994 : en:Chapter 14
00:58:35.220 : en:Chapter 15
01:02:48.931 : en:Chapter 16
01:07:16.615 : en:Chapter 17
01:12:48.822 : en:Chapter 18
01:15:21.808 : en:Chapter 19
01:18:10.018 : en:Chapter 20

piratbit.xyz



Скачать Тайная жизнь домашних животных 2 через торрент https://i87.fastpic.ru/big/2019/0822/2e/c7de80ea2a80aae3192e1e3ee6433a2e.jpg Скачать фильм Тайная жизнь домашних животных 2 через торрент бесплантно в хорошем качестве Описание: Почему человек так долго спит утром? Чем вкусно пахнет? Дай мне, дай, дай, дай! Как заставить человека чесать за ушком весь день? ... 10 10 7
Торрент: Зарегистрирован [2019-09-03 23:59] · скачан: 52 раз
Статус: √ проверено
Размер: 21.94 GB
Как cкачать? Как скачать Тайная жизнь домашних животных 2 через торрент | qTorrent

% Раздел Тема Автор DL S | L
Зарубежные Мультфильмы (BDRip 1080p, 720p, Blu-ray, BD-Remux) [ 4.64 GB ] Тайная жизнь домашних животных 2 / The Secret Life of Pets 2 [2019 мультфильм BDRip 720p] +MVO [HDRezka Studio] bober100 Скачать
11 | 1
Ultra HD (UHD: 2K, 4K, 8K) [ 45.45 GB ] Тайная жизнь домашних животных 2 / The Secret Life of Pets 2 [2019 мультфильм UHD BDRemux 2160p] [Dolby Vision] DUB bober100 Скачать
1 | 0
Ultra HD (UHD: 2K, 4K, 8K) [ 16.78 GB ] Тайная жизнь домашних животных 2 / The Secret Life of Pets 2 [2019 мультфильм UHD BDRip 2160p] [SDR] + MVO [HDRezka Studio] sheker187 Скачать
2 | 0
Ultra HD (UHD: 2K, 4K, 8K) [ 8.44 GB ] Тайная жизнь домашних животных 2 / The Secret Life of Pets 2 [2019 мультфильм UHD BDRip 2160p] + MVO [HDRezka Studio] sheker187 Скачать
1 | 0
Иностранные мультфильмы [ 745 MB ] Тайная жизнь домашних животных 2 / The Secret Life of Pets 2 [2019 Мультфильм HDRip] [ ] - ExKinoRay surikmas Скачать
13 | 0
Ultra HD (UHD: 2K, 4K, 8K) [ 46 GB ] Тайная жизнь домашних животных 2 / The Secret Life of Pets 2 [2019 мультфильм UHD BDRemux 2160p] [Dolby Vision TV] bober100 Скачать
2 | 0
Ultra HD (UHD: 2K, 4K, 8K) [ 38.38 GB ] Тайная жизнь домашних животных 2 / The Secret Life of Pets 2 [2019 мультфильм UHD BDRemux 2160p] +MVO [HDRezka Studio] bober100 Скачать
3 | 0


Последний раз редактировалось: bober100 (2019-09-04 00:03), всего редактировалось 2 раз(а)


>> Регистрируемся здесь <<






Отзывы и комментарии о схеме читаем и пишем здесь: ---> Отзывы и комментарии о схеме

Новые благодарочки в телеграм довольных пользователей:
скриншот   скриншот   скриншот   скриншот   скриншот

31-08-2019 20:07 Тайная жизнь домашних животных 2 Скачать торрент  

где нрмальный перевод?piratbit.xyz



    Дорогой пользователь! Огромная просьба, поблагодарите релизера, оцените раздачу и оставьте свои комментарий, если Вы скачали Тайная жизнь домашних животных 2 через торрент бесплатно! Внесите свою лепту в развитие PiratBit!
    Комментировать посты могут только пользователи прошедшие не сложную регистрацию
    Показать сообщения:    

    Тайная жизнь домашних животных 2 через торрент
    Скачать бесплатно Тайная жизнь домашних животных 2
    Тайная жизнь домашних животных 2 скачать торрент
    Тайная жизнь домашних животных 2 смотреть онлайн
    Cкачать фильм Тайная жизнь домашних животных 2 бесплатно
    Тайная жизнь домашних животных 2 скачать торрент в хорошем качестве
    Тайная жизнь домашних животных 2 смотреть онлайн бесплатно в хорошем качестве


    Вы не можете начинать темы
    Вы не можете отвечать на сообщения
    Вы не можете редактировать свои сообщения
    Вы не можете удалять свои сообщения
    Вы не можете голосовать в опросах
    Вы не можете прикреплять файлы к сообщениям
    Вы можете скачивать файлы