MEGA SALE -50% FORZA HORIZON 4 ULTIMATE+ВСЕ DLC+ОНЛАЙН всего за 599р. 299 руб. (супер цена). Внимание количество ограничено!!!

iTunes

1+1

iTunes

мы

iTunes

1

iTunes

Чернобыль

1 сезон

Ральф против интернета

Лицензия

ПШазам

Лицензия

Игра престолов

Лицензия

30
pack

ВАЖНО

!!Акция!!

Alien_RageХит недели

RePack

Resident Evil 21

ИГРА 18+

pack

RePack

Metro:Exodus

!!Акция!!

Alien_Rage

RePack

fifa19

RePack

Assassins Creed: Odyssey

RePack

NEED FOR SPEED™ PAYBACK

3 сезон

9 сезон

Бесстыжие 9 сезон

Все сериалы

все сериалы на PB.wtf

RePack

FAR CRY 5
Ребята, катастрофически не хватает 7730р. для оплаты серверов за ИЮЛЬ (всвязи с блокировками трафик упал в 3 раза), 1-2р., выручайте.
  

Императрица Ки / Ki Hwanghoo / Qi Empress / Сезон: 1 / Серии: 1-51 из 51 [2013, История, романтика, экшн, политика, драма, WEBRip] MVO [Мобильное Телевидение] piratbit.xyz

Императрица Ки через торрент piratbit.xyz

Качают: 2 [ 0 KB/s ]
Размер: 38.02 GB | Добавлен: 7 д. назад | Торрент скачан:5 раз
Скачать  

14-08-2019 03:33 Императрица Ки Скачать торрент  

Императрица Ки / Ki Hwanghoo / Qi Empress Страна: Корея
Год выпуска: 2013
Жанр: История, романтика, экшн, политика, драма
Продолжительность: ~ 00:59:43
Перевод: Профессиональный (многоголосый закадровый) | Мобильное Телевидение
Доп.информация: Сериал озвучен компанией Мобильное Телевидение по заказу телеканала Дорама
Субтитры: отсутствуют

Режиссер: Ли Сонджун, Хан Хи

В ролях: Ха Чжи Вон, Чу Чжин Мо, Чжи Чан Ук, Чха До Джин, Сим И Ён, Ким Хён Бом, Хан Хе Рин, Пэк Чжин Хи, Квон О Чжун, Чо Джэ Юн, Ким Мён Гук

Описание: «Императрица Ки» – историческая сага о жизни Ки Хван Ку, супруги Тогон-Тэмура – последнего императора монгольской империи Юань. Борьба двух сильных личностей за сердце главной героини, сложности взаимоотношений, предательства, месть, любовь и страсть – одна из самых эмоциональных дорам наверняка понравится всем, кто любит исторические сериалы. В юности Ки Хван Ку потеряла отца и мать, была разлучена с любимым человеком, у нее отняли ребенка. Какие ещё испытания ждут главную героиню? Каким был ее путь к правлению?

Сэмпл: http://multi-up.com/1237697
rating


Качество: WEBRip
Формат: AVI

Видео: XviD, 720x400 (16:9), 25 fps, ~ 1600 Kbps
Аудио: AC3, 48.0 KHz, 2 ch, 192 Kbps


Реклама: Отсутствует
- Мировая премьера сериала состоялась 28 октября 2013 года на корейском телеканале MBC.

- Первоначальное корейское название сериала "Hwatu", что в переводе на русский обозначает "Цветочные карты".

- Съемки сериала частично проходили на Hengdian World Studios - киностудии, расположенной в китайском городе Ханьдянь провинции Чжэцзян. Данные съемки прошли с 12 по 23 октября 2013 года.

- Актриса Пэк Чин-хи получила награду в категории "Лучшая актриса" на церемонии вручения премии "BaekSang Arts Awards 2014".

- Сериал получил семь наград на премия "MBC Drama Awards" 2013 года.
Общее
Полное имя : G:\Imperatritsa.Ki.2013.MVO.WEBRip\Imperatritsa.Ki.e01.2013.MVO.WEBRip.avi
Формат : AVI
Формат/Информация : Audio Video Interleave
Размер файла : 763 Мбайт
Продолжительность : 59 м. 14 с.
Общий поток : 1802 Кбит/сек
Программа кодирования : VirtualDubMod 1.5.10.3 | www.virtualdub-fr.org || (build 2550/release)
Библиотека кодирования : VirtualDubMod build 2550/release

Видео
Идентификатор : 0
Формат : MPEG-4 Visual
Профиль формата : Advanced Simple@L5
Параметр BVOP формата : 2
Параметр QPel формата : Нет
Параметр GMC формата : Без точки перехода
Параметр матрицы формата : Выборочная
Идентификатор кодека : XVID
Идентификатор кодека/Подсказка : XviD
Продолжительность : 59 м. 14 с.
Битрейт : 1600 Кбит/сек
Ширина : 720 пикселей
Высота : 400 пикселей
Соотношение сторон : 16:9
Частота кадров : 25,000 кадров/сек
Цветовое пространство : YUV
Субдискретизация насыщенности : 4:2:0
Битовая глубина : 8 бит
Тип развёртки : Прогрессивная
Метод сжатия : С потерями
Бит/(Пиксели*Кадры) : 0.222
Размер потока : 678 Мбайт (89%)
Библиотека кодирования : XviD 73

Аудио
Идентификатор : 1
Формат : AC-3
Формат/Информация : Audio Coding 3
Расширение режима : CM (complete main)
Параметр Endianness формата : Big
Идентификатор кодека : 2000
Продолжительность : 59 м. 14 с.
Вид битрейта : Постоянный
Битрейт : 192 Кбит/сек
Каналы : 2 канала
Расположение каналов : Front: L R
Частота : 48,0 КГц
Частота кадров : 31,250 кадров/сек (1536 spf)
Битовая глубина : 16 бит
Метод сжатия : С потерями
Размер потока : 81,3 Мбайт (11%)
Выравнивание : Разделение по промежуткам
Продолжительность промежутка : 40 мс. (1,00 видеокадр)
Время предзагрузки промежутка : 500 мс.
piratbit.xyz



Скачать Императрица Ки через торрент https://i106.fastpic.ru/big/2019/0728/71/c3ed2dc68e32017ea8a2fd24f6ab7571.jpg Скачать фильм Императрица Ки через торрент бесплантно в хорошем качестве Описание: «Императрица Ки» – историческая сага о жизни Ки Хван Ку, супруги Тогон-Тэмура – последнего императора монгольской империи Юань. ... 10 10 2
Торрент: Зарегистрирован [2019-08-14 03:33] · скачан: 5 раз
Статус: √ проверено
Размер: 38.02 GB
Как cкачать? Как скачать Императрица Ки через торрент | qTorrent


>> Регистрируемся здесь <<






Отзывы и комментарии о схеме читаем и пишем здесь: ---> Отзывы и комментарии о схеме

Новые благодарочки в телеграм довольных пользователей:
скриншот   скриншот   скриншот   скриншот   скриншот
    Дорогой пользователь! Огромная просьба, поблагодарите релизера, оцените раздачу и оставьте свои комментарий, если Вы скачали Императрица Ки через торрент бесплатно! Внесите свою лепту в развитие PiratBit!
    Комментировать посты могут только пользователи прошедшие не сложную регистрацию
    Показать сообщения:    

    Императрица Ки через торрент
    Скачать бесплатно Императрица Ки
    Императрица Ки скачать торрент
    Императрица Ки смотреть онлайн
    Cкачать фильм Императрица Ки бесплатно
    Императрица Ки скачать торрент в хорошем качестве
    Императрица Ки смотреть онлайн бесплатно в хорошем качестве


    Вы не можете начинать темы
    Вы не можете отвечать на сообщения
    Вы не можете редактировать свои сообщения
    Вы не можете удалять свои сообщения
    Вы не можете голосовать в опросах
    Вы не можете прикреплять файлы к сообщениям
    Вы можете скачивать файлы