новый адрес
Ссылка на приватное зеркало всего за 1$. Внимание количество ограничено!!!

iTunes

1+1

iTunes

мы

WEB-DL

1

iTunes

Чернобыль

iTunes

Ральф против интернета

Лицензия

ПШазам

Лицензия

Оно 2

Лицензия

30
pack

Вам бонус

ВАЖНО

!!Акция!!

Alien_RageХит недели

RePack

Resident Evil 21

ИГРА 18+

pack

RePack

jed

!!Акция!!

Alien_Rage

RePack

fifa19

RePack

Assassins Creed: Odyssey

RePack

NEED FOR SPEED™ PAYBACK

3 сезон

9 сезон

Бесстыжие 9 сезон

Все сериалы

все сериалы на PB.wtf

RePack

FAR CRY 5
Ребята, катастрофически не хватает 1900р. для оплаты серверов за Октябрь (всвязи с блокировками трафик упал в 3 раза), 1-2р., выручайте.
  

Гвен / Gwen (Уильям МакГрегор) [2018, Драма, история, ужасы, WEB-DL 1080p] MVO [HDRezka Studio] piratbit.xyz

Гвен через торрент piratbit.xyz

Размер: 3.1 GB | Добавлен: 3 мес. 28 д. назад | Торрент скачан:43 раза
Скачать  

13-08-2019 22:39 Гвен Скачать торрент  

Гвен / Gwen
Год выпуска: 2018
Страна: Великобритания
Жанр: Драма, история, ужасы
Продолжительность: 01:24:11
Перевод: Профессиональный (многоголосый) | HDRezka Studio
Субтитры: отсутствуют

Режиссер: Уильям МакГрегор

rating

В ролях: Максин Пик, Ричард Херрингтон, Элинор Вортингтон-Кокс, Марк Льюис Джонс, Кобна Холдбрук-Смит, Ричард Элфин, Гвион Глин, Дифриг Эванс, Джоди Иннес

Описание: События развиваются в Северном Уэльсе в 19-м веке вокруг Гвен — девушки-подростка, которая живет на ферме вместе со своей младшей сестрой Мэри и матерью Элен. Главу небольшого семейства забрали на войну, что плачевно сказалось на финансовом положении его близких. Гвен приходится присматривать за вечно болеющей матерью и сестренкой, заниматься хозяйством и противостоять нападкам со стороны горнодобывающей компании, покушающейся на их землю. Но ситуация окончательно выходит из-под контроля, когда на ферме начинают происходить мистические события: погибает стадо овец, портится весь урожай и ухудшается состояние Элен.

Качество: WEB-DL 1080p
Формат: MKV

Видео: MPEG-4 AVC Video, 1912x806 (2.40:1), 4689 Kbps, 24.000 fps
Аудио#1: Russian (AAC, 2 ch, 190 kbps, 16 bits, 48.0 KHz) - HDRezka Studio
Аудио#2: English (AC3, 6 ch, 384 kbps, 16 bits, 48.0 KHz) - Оригинал
скриншот  скриншот  скриншот  скриншот  скриншот  

General
Unique ID : 147513523798090770116301332446793977561 (0x6EFA123EA6B85946AA079F038B044ED9)
Complete name : G:Gwen.2018.WEB-DL.1080p.mkv
Format : Matroska
Format version : Version 4 / Version 2
File size : 3.10 GiB
Duration : 1 h 24 min
Overall bit rate : 5 275 kb/s
Encoded date : UTC 2019-08-13 19:04:26
Writing application : mkvmerge v20.0.0 ('I Am The Sun') 64-bit
Writing library : libebml v1.3.5 + libmatroska v1.4.8

Video
ID : 1
Format : AVC
Format/Info : Advanced Video Codec
Format profile : High@L4
Format settings : CABAC / 5 Ref Frames
Format settings, CABAC : Yes
Format settings, RefFrames : 5 frames
Codec ID : V_MPEG4/ISO/AVC
Duration : 1 h 24 min
Bit rate : 4 689 kb/s
Width : 1 912 pixels
Height : 806 pixels
Display aspect ratio : 2.40:1
Frame rate mode : Constant
Frame rate : 24.000 FPS
Color space : YUV
Chroma subsampling : 4:2:0
Bit depth : 8 bits
Scan type : Progressive
Bits/(Pixel*Frame) : 0.127
Stream size : 2.76 GiB (89%)
Language : English
Default : Yes
Forced : No
Color range : Limited
Color primaries : BT.709
Transfer characteristics : BT.709
Matrix coefficients : BT.709

Audio #1
ID : 2
Format : AAC
Format/Info : Advanced Audio Codec
Format profile : LC
Codec ID : A_AAC-2
Duration : 1 h 24 min
Bit rate : 199 kb/s
Channel(s) : 2 channels
Channel positions : Front: L R
Sampling rate : 48.0 kHz
Frame rate : 46.875 FPS (1024 SPF)
Compression mode : Lossy
Stream size : 120 MiB (4%)
Title : MVO HDRezka Studio
Language : Russian
Default : Yes
Forced : No

Audio #2
ID : 3
Format : AC-3
Format/Info : Audio Coding 3
Codec ID : A_AC3
Duration : 1 h 24 min
Bit rate mode : Constant
Bit rate : 384 kb/s
Channel(s) : 6 channels
Channel positions : Front: L C R, Side: L R, LFE
Sampling rate : 48.0 kHz
Frame rate : 31.250 FPS (1536 SPF)
Bit depth : 16 bits
Compression mode : Lossy
Stream size : 231 MiB (7%)
Language : English
Service kind : Complete Main
Default : No
Forced : No

Menu
00:00:00.000 : en:1
00:01:27.000 : en:2
00:10:42.000 : en:3
00:21:34.000 : en:4
00:33:31.000 : en:5
00:43:44.000 : en:6
00:51:36.000 : en:7
01:03:38.000 : en:8
01:11:10.000 : en:9
01:19:54.000 : en:10

piratbit.xyz



Скачать Гвен через торрент https://d.radikal.ru/d36/1908/78/a991be66c0f1.jpg Скачать фильм Гвен через торрент бесплантно в хорошем качестве Описание: События развиваются в Северном Уэльсе в 19-м веке вокруг Гвен — девушки-подростка, которая живет на ферме вместе со своей младшей ... 10 10 3
Торрент: Зарегистрирован [2019-08-13 22:39] · скачан: 43 раз
Статус: T временная
Размер: 3.1 GB
Как cкачать? Как скачать Гвен через торрент | qTorrent

% Раздел Тема Автор DL S | L
T Фильмы 2018 [DVDrip, WEB-DLRip, HDrip] (DUB, MVO) [ 1.46 GB ] Гвен / Gwen [2018 история WEB-DLRip] MVO [HDRezka Studio] bober100 Скачать
1 | 0

28-11-2019 20:33  

Отключить всю рекламу на сайте

14-08-2019 19:16 Гвен Скачать торрент  

И сюда толерантно запихали негра =)piratbit.xyz



    Дорогой пользователь! Огромная просьба, поблагодарите релизера, оцените раздачу и оставьте свои комментарий, если Вы скачали Гвен через торрент бесплатно! Внесите свою лепту в развитие PiratBit!
    Комментировать посты могут только пользователи прошедшие не сложную регистрацию
    Показать сообщения:    

    Гвен через торрент
    Скачать бесплатно Гвен
    Гвен скачать торрент
    Гвен смотреть онлайн
    Cкачать фильм Гвен бесплатно
    Гвен скачать торрент в хорошем качестве
    Гвен смотреть онлайн бесплатно в хорошем качестве


    Вы не можете начинать темы
    Вы не можете отвечать на сообщения
    Вы не можете редактировать свои сообщения
    Вы не можете удалять свои сообщения
    Вы не можете голосовать в опросах
    Вы не можете прикреплять файлы к сообщениям
    Вы можете скачивать файлы