новый адрес
Ссылка на приватное зеркало всего за 1$. Внимание количество ограничено!!!

iTunes

1+1

iTunes

мы

WEB-DL

1

iTunes

Чернобыль

iTunes

Ральф против интернета

Лицензия

ПШазам

Лицензия

Оно 2

Лицензия

30
pack

Вам бонус

ВАЖНО

!!Акция!!

Alien_RageХит недели

RePack

Resident Evil 21

ИГРА 18+

pack

RePack

jed

!!Акция!!

Alien_Rage

RePack

fifa19

RePack

Assassins Creed: Odyssey

RePack

NEED FOR SPEED™ PAYBACK

3 сезон

9 сезон

Бесстыжие 9 сезон

Все сериалы

все сериалы на PB.wtf

RePack

FAR CRY 5
Ребята, катастрофически не хватает 1900р. для оплаты серверов за Октябрь (всвязи с блокировками трафик упал в 3 раза), 1-2р., выручайте.
  

Аладдин / Aladdin (Гай Ричи) [2019, мюзикл, фэнтези, мелодрама, комедия, приключения, семейный, WEB-DL 1080p] MVO [HDRezka Studio] piratbit.xyz

Аладдин через торрент piratbit.xyz

Раздают: 12 [ 3 KB/s ]
Размер: 5.81 GB | Добавлен: 4 мес. назад | Торрент скачан:945 раз
Скачать  

12-08-2019 03:11 Аладдин Скачать торрент  

Аладдин / Aladdin Год выпуска: 2019
Страна: США
Жанр: мюзикл, фэнтези, мелодрама, комедия, приключения, семейный
Продолжительность: 02:07:58
Перевод: Профессиональный (многоголосый) | HDRezka Studio
Субтитры: отсутствуют

Режиссер: Гай Ричи

rating

В ролях: Мена Массуд, Наоми Скотт, Уилл Смит, Марван Кензари, Навид Негабан, Назим Педрад, Билли Магнуссен, Джордан А. Нэш, Талия Блэр, Обри Лин

Описание: Молодой воришка по имени Аладдин хочет стать принцем, чтобы жениться на принцессе Жасмин. Тем временем визирь Аграбы Джафар намеревается захватить Влacть над Аграбой, а для этого он стремится заполучить волшебную лампу, хранящуюся в пещере чудес, доступ к которой разрешен лишь тому, кого называют «алмаз неограненный», и этим человеком является никто иной, как сам Аладдин.

Качество: WEB-DL 1080p
Формат: MKV

Видео: MPEG-4 AVC, 6 000 Кбит/с, 1920x1080
Аудио#1: Русская (AAC, 2 ch, 160 Кбит/с)
Аудио#2: английская (AC3, 6ch, 384 Кбит/с)
скриншот  скриншот  скриншот  скриншот  

Format : Matroska
Format version : Version 4
File size : 5.81 GiB
Duration : 2 h 7 min
Overall bit rate : 6 503 kb/s
Encoded date : UTC 2019-08-12 02:36:00
Writing application : mkvmerge v33.1.0 ('Primrose') 64-bit
Writing library : libebml v1.3.7 + libmatroska v1.5.0

Video
ID : 1
Format : AVC
Format/Info : Advanced Video Codec
Format profile : High@L4
Format settings : CABAC / 4 Ref Frames
Format settings, CABAC : Yes
Format settings, ReFrames : 4 frames
Codec ID : V_MPEG4/ISO/AVC
Duration : 2 h 7 min
Bit rate : 6 000 kb/s
Width : 1 920 pixels
Height : 1 080 pixels
Display aspect ratio : 16:9
Frame rate mode : Constant
Frame rate : 23.976 (24000/1001) FPS
Color space : YUV
Chroma subsampling : 4:2:0
Bit depth : 8 bits
Scan type : Progressive
Bits/(Pixel*Frame) : 0.121
Stream size : 5.32 GiB (92%)
Writing library : x264 core 152 r2854 e9a5903
Encoding settings : cabac=1 / ref=3 / deblock=1:0:0 / analyse=0x3:0x133 / me=hex / subme=7 / psy=1 / psy_rd=1.00:0.00 / mixed_ref=1 / me_range=16 / chroma_me=1 / trellis=1 / 8x8dct=1 / cqm=0 / deadzone=21,11 / fast_pskip=1 / chroma_qp_offset=-2 / threads=24 / lookahead_threads=4 / sliced_threads=0 / nr=0 / decimate=1 / interlaced=0 / bluray_compat=0 / constrained_intra=0 / bframes=3 / b_pyramid=2 / b_adapt=1 / b_bias=0 / direct=1 / weightb=1 / open_gop=0 / weightp=2 / keyint=250 / keyint_min=25 / scenecut=40 / intra_refresh=0 / rc_lookahead=40 / rc=abr / mbtree=1 / bitrate=6000 / ratetol=1.0 / qcomp=0.60 / qpmin=10 / qpmax=51 / qpstep=4 / ip_ratio=1.40 / aq=1:1.00
Default : Yes
Forced : No

Audio #1
ID : 2
Format : AAC LC
Format/Info : Advanced Audio Codec Low Complexity
Codec ID : A_AAC-2
Duration : 2 h 7 min
Bit rate : 160 kb/s
Channel(s) : 2 channels
Channel layout : L R
Sampling rate : 48.0 kHz
Frame rate : 46.875 FPS (1024 SPF)
Compression mode : Lossy
Delay relative to video : -199 ms
Stream size : 146 MiB (2%)
Title : HDRezka Studio
Language : Russian
Default : Yes
Forced : No

Audio #2
ID : 3
Format : AC-3
Format/Info : Audio Coding 3
Commercial name : Dolby Digital
Codec ID : A_AC3
Duration : 2 h 7 min
Bit rate mode : Constant
Bit rate : 384 kb/s
Channel(s) : 6 channels
Channel layout : L R C LFE Ls Rs
Sampling rate : 48.0 kHz
Frame rate : 31.250 FPS (1536 SPF)
Bit depth : 16 bits
Compression mode : Lossy
Delay relative to video : -208 ms
Stream size : 351 MiB (6%)
Language : English
Service kind : Complete Main
Default : No
Forced : No

Menu
00:00:00.054 : en:Глава 01

piratbit.xyz



Скачать Аладдин через торрент https://c.radikal.ru/c38/1905/4f/aeaba4f2516d.png Скачать фильм Аладдин через торрент бесплантно в хорошем качестве Описание: Молодой воришка по имени Аладдин хочет стать принцем, чтобы жениться на принцессе Жасмин. Тем временем визирь Аграбы Джафар ... 9.5 10 24
Info! Золотая раздача, скачанное не засчитывается.
Торрент: Зарегистрирован [2019-08-12 03:11] · скачан: 945 раз
Статус: T временная
Размер: 5.81 GB
Как cкачать? Как скачать Аладдин через торрент | qTorrent

% Раздел Тема Автор DL S | L
Официальные cаундтреки к зарубежным фильмам [ 927 MB ] OST - Аладдин / Aladdin [Alan Menken & VA] 2019 / FLAC / lossless / Score саундтрек soundtrack bober100 Скачать
2 | 0
Фильмы (Blu-ray, BD-Remux, HDDVD) [ 41.82 GB ] Аладдин / Aladdin [2019 мюзикл BD Remux 1080p] [2D/3D] DUB [] bober100 Скачать
1 | 0
Фильмы 2019 [DVDrip, WEB-DLRip, HDrip] (DUB, MVO) [ 1.46 GB ] Аладдин / Aladdin [2019 мюзикл BDRip-AVC] DUB [] bober100 Скачать
7 | 0
3D Фильмы [ 18.51 GB ] Аладдин в 3Д / Aladdin 3D [2019 мюзикл BDRip 1080p] OverUnder / Вертикальная стереопара serega768 Скачать
1 | 0
Ultra HD (UHD: 2K, 4K, 8K) — видео сверхвысокой чёткости [ 27.13 GB ] Аладдин / Aladdin [2019 мюзикл UHD BDRip 2160p] [SDR] DUB [] +MVO [HDRezka Studio] bober100 Скачать
1 | 1
Фильмы 2019 [DVDrip, WEB-DLRip, HDrip] (DUB, MVO) [ 2.41 GB ] Аладдин / Aladdin [2019 мюзикл BDRip-AVC] DUB [] bober100 Скачать
7 | 0
Фильмы (Blu-ray, BD-Remux, HDDVD) [ 27.53 GB ] Аладдин / Aladdin [2019 мюзикл BD Remux 1080p] DUB [] bober100 Скачать
2 | 0

28-11-2019 20:33  

Отключить всю рекламу на сайте

30-08-2019 00:36 Аладдин Скачать торрент  

Топик был перенесен из форума Фильмы (WEB-DL 720p, 1080p) в форум Для поглощённых раздач


bober100piratbit.xyz



    Дорогой пользователь! Огромная просьба, поблагодарите релизера, оцените раздачу и оставьте свои комментарий, если Вы скачали Аладдин через торрент бесплатно! Внесите свою лепту в развитие PiratBit!
    Комментировать посты могут только пользователи прошедшие не сложную регистрацию
    Показать сообщения:    

    Аладдин через торрент
    Скачать бесплатно Аладдин
    Аладдин скачать торрент
    Аладдин смотреть онлайн
    Cкачать фильм Аладдин бесплатно
    Аладдин скачать торрент в хорошем качестве
    Аладдин смотреть онлайн бесплатно в хорошем качестве


    Вы не можете начинать темы
    Вы не можете отвечать на сообщения
    Вы не можете редактировать свои сообщения
    Вы не можете удалять свои сообщения
    Вы не можете голосовать в опросах
    Вы не можете прикреплять файлы к сообщениям
    Вы можете скачивать файлы