MEGA SALE -50% FORZA HORIZON 4 ULTIMATE+ВСЕ DLC+ОНЛАЙН всего за 599р. 299 руб. (супер цена). Внимание количество ограничено!!!

iTunes

1+1

iTunes

мы

iTunes

1

iTunes

Чернобыль

iTunes

Ральф против интернета

Лицензия

ПШазам

Лицензия

Игра престолов

Лицензия

30
pack

ВАЖНО

!!Акция!!

Alien_RageХит недели

RePack

Resident Evil 21

ИГРА 18+

pack

RePack

Metro:Exodus

!!Акция!!

Alien_Rage

RePack

fifa19

RePack

Assassins Creed: Odyssey

RePack

NEED FOR SPEED™ PAYBACK

3 сезон

9 сезон

Бесстыжие 9 сезон

Все сериалы

все сериалы на PB.wtf

RePack

FAR CRY 5
Ребята, катастрофически не хватает 7730р. для оплаты серверов за ИЮЛЬ (всвязи с блокировками трафик упал в 3 раза), 1-2р., выручайте.
  

Королевский корги в 3Д / The Queen's Corgi 3D (Винсент Кестелут / Vincent Kesteloot, Бен Стассен / Ben Stassen) [2019, мультфильм, комедия, семейный, BDRip, 1080p] OverUnder / Вертикальная стереопара (iTunes) piratbit.xyz

Королевский корги в 3Д через торрент piratbit.xyz

Раздают: 2 [ 0 KB/s ]
Размер: 9.39 GB | Добавлен: 17 д. назад | Торрент скачан:10 раз
Скачать  

08-08-2019 13:50 Королевский корги в 3Д Скачать торрент  

Королевский корги / The Queen's Corgi

Год выпуска: 2019
Страна: Бельгия (Belga Productions, nWave Pictures, Montecito Film Company, RTL TVI, Charades)
Жанр: мультфильм, комедия, семейный
Продолжительность: 01:25:23

Перевод: Профессиональный дублированный(iTunes)
Русские субтитры: нет
Режиссеры: Винсент Кестелут / Vincent Kesteloot, Бен Стассен / Ben Stassen

Роли озвучивали: Расти Шэклфорд, Джо Уайатт, Leo Barakat, Джейн Алан, Дино Андраде, Джои Камен, Николь Шерман, Кирк Торнтон, Мэдисон Браун, Камила Родс

Описание: Любимая порода собак у очень богатых и влиятельных людей — это корги. Маленькие собачки полностью погружены в жизнь своих больших хозяев. Спасаясь от политических интриг, любимец Британской Королевы вынужден покинуть Букингемский дворец. Теперь ему предстоит не только познакомиться с тайной жизнью улиц Лондона, но и доказать, что он настоящий Королевский Корги…

Сэмпл: http://sendfile.su/1509921

Качество: BDrip, 1080p
Контейнер: MKV
Формат 3D: OverUnder / Вертикальная стереопара
Порядок ракурсов: левый ракурс первый
Видео кодек: x264
Аудио кодек: AC3
Видео: AVC / High@L5.0 / 23,976 fps / 1920х2160 / 14,4 Мбит/сек
Аудио: Русский / AC3 / 48 KHz / 5.1 ch / 384 Кбит/сек(iTunes)
Аудио 2: Английский / AC3 / 48 KHz / 5.1 ch / 640 Кбит/сек

ВНИМАНИЕ ! На встроенных ТВ-плеерах работать не будет!!!

ТВ Samsung в названии которого есть надпись Ultra HD , и LG Ultra HD 800 серии, LG C6P, Xiaomi Mi TV 2 воспроизводят полные стереопары встроенными плеерами
Железные плееры на которых воспроизводятся полные стереопары:Popcorn C-200 , Dune HD Smart D1 , Dune HD DUO , Dune HD Smart H1 , Dune HD Smart B1 , Dune HD Max , Dune HD TV-303D, Dune HD TV-102, Dune HD Base 3D, Philips HMP7001, Aura HD, MECOOL BB2
Чтобы изображение было на весь экран в плеере выставляем, если рип 1920х1600 - то выставляем 2.35:1 , если 1920х2160 - то выставляем 16:9
Общее
Уникальный идентификатор : 224090979054380104505358483767016775702 (0xA8965A496B51D4488372DBC8880B6016)
Полное имя : E:\видео\The Queen's Corgi.Rip by SeRoGa00.mkv
Формат : Matroska
Версия формата : Version 2
Размер файла : 9,39 Гбайт
Продолжительность : 1 ч. 25 м.
Общий поток : 15,7 Мбит/сек
Дата кодирования : UTC 2019-08-08 13:06:15
Программа кодирования : mkvmerge v3.4.0 ('Rapunzel') сборка от May 15 2010 09:38:20
Библиотека кодирования : libebml v0.8.0 + libmatroska v0.9.0

Видео
Идентификатор : 1
Формат : AVC
Формат/Информация : Advanced Video Codec
Профиль формата : High@L5.0
Параметр CABAC формата : Да
Параметр ReFrames формата : 4 кадра
Идентификатор кодека : V_MPEG4/ISO/AVC
Продолжительность : 1 ч. 25 м.
Битрейт : 14,4 Мбит/сек
Ширина : 1920 пикселей
Высота : 2160 пикселей
Соотношение сторон : 0,889
Частота кадров : 23,976 кадра/сек
Цветовое пространство : YUV
Субдискретизация насыщенности : 4:2:0
Битовая глубина : 8 бит
Тип развёртки : Прогрессивная
Бит/(Пиксели*Кадры) : 0.145
Размер потока : 8,59 Гбайт (92%)
Заголовок : Rip by SeRoGa00
Библиотека кодирования : x264 core 155 r2901 7d0ff22
Настройки программы : cabac=1 / ref=4 / deblock=1:-3:-3 / analyse=0x3:0x113 / me=umh / subme=10 / psy=1 / psy_rd=1.00:0.15 / mixed_ref=1 / me_range=24 / chroma_me=1 / trellis=2 / 8x8dct=1 / cqm=0 / deadzone=21,11 / fast_pskip=1 / chroma_qp_offset=-3 / threads=18 / lookahead_threads=6 / sliced_threads=0 / nr=0 / decimate=0 / interlaced=0 / bluray_compat=0 / constrained_intra=0 / bframes=10 / b_pyramid=2 / b_adapt=2 / b_bias=0 / direct=3 / weightb=1 / open_gop=0 / weightp=2 / keyint=250 / keyint_min=23 / scenecut=40 / intra_refresh=0 / rc_lookahead=60 / rc=crf / mbtree=1 / crf=16.5 / qcomp=0.60 / qpmin=10 / qpmax=69 / qpstep=4 / vbv_maxrate=40000 / vbv_bufsize=40000 / crf_max=0.0 / nal_hrd=none / filler=0 / ip_ratio=1.40 / aq=1:1.00
Язык : English
Default : Нет
Forced : Нет

Аудио #1
Идентификатор : 2
Формат : AC-3
Формат/Информация : Audio Coding 3
Расширение режима : CM (complete main)
Параметр Endianness формата : Big
Идентификатор кодека : A_AC3
Продолжительность : 1 ч. 25 м.
Вид битрейта : Постоянный
Битрейт : 384 Кбит/сек
Каналы : 6 каналов
Расположение каналов : Front: L C R, Side: L R, LFE
Частота : 48,0 КГц
Битовая глубина : 16 бит
Метод сжатия : С потерями
Размер потока : 235 Мбайт (2%)
Язык : Russian
Default : Да
Forced : Нет

Аудио #2
Идентификатор : 3
Формат : AC-3
Формат/Информация : Audio Coding 3
Расширение режима : CM (complete main)
Параметр Endianness формата : Big
Идентификатор кодека : A_AC3
Продолжительность : 1 ч. 25 м.
Вид битрейта : Постоянный
Битрейт : 640 Кбит/сек
Каналы : 6 каналов
Расположение каналов : Front: L C R, Side: L R, LFE
Частота : 48,0 КГц
Битовая глубина : 16 бит
Метод сжатия : С потерями
Размер потока : 391 Мбайт (4%)
Язык : English
Default : Нет
Forced : Нет

Меню
00:00:00.000 : en:00:00:00.000
00:05:10.976 : en:00:05:10.976
00:11:42.283 : en:00:11:42.283
00:17:41.518 : en:00:17:41.518
00:27:51.586 : en:00:27:51.586
00:40:54.577 : en:00:40:54.577
00:48:20.021 : en:00:48:20.021
00:57:23.313 : en:00:57:23.313
01:02:38.128 : en:01:02:38.128
01:06:23.269 : en:01:06:23.269
01:15:57.802 : en:01:15:57.802
01:21:44.399 : en:01:21:44.399
скриншот  

скриншот  

скриншот  

скриншот  

скриншот  

скриншот  
piratbit.xyz



Скачать Королевский корги в 3Д через торрент https://b.radikal.ru/b40/1908/18/8c83c3e7c133.png Скачать фильм Королевский корги в 3Д через торрент бесплантно в хорошем качестве Описание: Любимая порода собак у очень богатых и влиятельных людей — это корги. Маленькие собачки полностью погружены в жизнь своих больших ... 5.5 10 2
Торрент: Зарегистрирован [2019-08-08 13:50] · скачан: 10 раз
Статус: √ проверено
Размер: 9.39 GB
Как cкачать? Как скачать Королевский корги в 3Д через торрент | qTorrent


>> Регистрируемся здесь <<






Отзывы и комментарии о схеме читаем и пишем здесь: ---> Отзывы и комментарии о схеме

Новые благодарочки в телеграм довольных пользователей:
скриншот   скриншот   скриншот   скриншот   скриншот
    Дорогой пользователь! Огромная просьба, поблагодарите релизера, оцените раздачу и оставьте свои комментарий, если Вы скачали Королевский корги в 3Д через торрент бесплатно! Внесите свою лепту в развитие PiratBit!
    Комментировать посты могут только пользователи прошедшие не сложную регистрацию
    Показать сообщения:    

    Королевский корги в 3Д через торрент
    Скачать бесплатно Королевский корги в 3Д
    Королевский корги в 3Д скачать торрент
    Королевский корги в 3Д смотреть онлайн
    Cкачать фильм Королевский корги в 3Д бесплатно
    Королевский корги в 3Д скачать торрент в хорошем качестве
    Королевский корги в 3Д смотреть онлайн бесплатно в хорошем качестве


    Вы не можете начинать темы
    Вы не можете отвечать на сообщения
    Вы не можете редактировать свои сообщения
    Вы не можете удалять свои сообщения
    Вы не можете голосовать в опросах
    Вы не можете прикреплять файлы к сообщениям
    Вы можете скачивать файлы