MEGA SALE -50% FORZA HORIZON 4 ULTIMATE+ВСЕ DLC+ОНЛАЙН всего за 599р. 299 руб. (супер цена). Внимание количество ограничено!!!

iTunes

1+1

iTunes

мы

iTunes

1

iTunes

Чернобыль

1 сезон

Ральф против интернета

Лицензия

ПШазам

Лицензия

Игра престолов

Лицензия

30
pack

ВАЖНО

!!Акция!!

Alien_RageХит недели

RePack

Resident Evil 21

ИГРА 18+

pack

RePack

Metro:Exodus

!!Акция!!

Alien_Rage

RePack

fifa19

RePack

Assassins Creed: Odyssey

RePack

NEED FOR SPEED™ PAYBACK

3 сезон

9 сезон

Бесстыжие 9 сезон

Все сериалы

все сериалы на PB.wtf

RePack

FAR CRY 5
Ребята, катастрофически не хватает 7730р. для оплаты серверов за ИЮЛЬ (всвязи с блокировками трафик упал в 3 раза), 1-2р., выручайте.
  

Самый громкий голос / The Loudest Voice / Сезон: 1 / Серии: 1-7 из 7 (Кари Скогланд, Джереми Подесва, Стивен Фрирз) [2019, драма, WEB-DL 720p] MVO [TVShows] piratbit.xyz

Самый громкий голос через торрент piratbit.xyz

Раздают: 1 [ 75 KB/s ]
Размер: 12.55 GB | Добавлен: 7 д. назад | Торрент скачан:3 раза
Скачать  

02-08-2019 09:32 Самый громкий голос Скачать торрент  

Самый громкий голос / The Loudest Voice
Год выпуска: 2019
Страна: США
Жанр: драма
Продолжительность: ~00:55:00 серия
Перевод: Профессиональный (многоголосый) | TVShows
Субтитры: английские

Режиссер: Кари Скогланд, Джереми Подесва, Стивен Фрирз

rating

В ролях:

Рассел Кроу (Roger Ailes), Сиенна Миллер (Beth Ailes), Сет МакФарлейн (Brian Lewis), Аннабелль Уоллис (Laurie Luhn), Наоми Уоттс (Gretchen Carlson), Саймон МакБерни (Rupert Murdoch), Алекса Палладино (Judy Laterza), Джош Стэмберг (Bill Shine), МакКензи Эстин (John Moody), Люси Оуэн (Suzanne Scott), Сьюзан Пурфар (Dianne Brandi), Дженна Ли Грин (Irena Briganti)
Описание: Хроника последних десяти лет жизни Роджера Эйлса, генерального директора Fox News, а также медиаконсультанта нескольких президентов США. Зритель увидит болевые моменты карьеры Эйлса, начиная от его отношений с Дональдом Трампом и заканчивая обвинениями в сексуальных домогательствах...

Качество: WEB-DL 720p
Формат: MKV

Видео: 1280x720 (16:9), 23.976 fps, MPEG-4 AVC ~3 141 kbps avg
Аудио#1: 48.0 kHz, AC3 Dolby Digital, 3/2 (L,C,R,l,r) + LFE ch, ~384 kbps | RUS / MVO
Аудио#2: 48.0 kHz, Enhanced Audio Coding 3, 3/2 (L,C,R,l,r) + LFE ch, ~640 kbps | ENG
скриншот  скриншот  скриншот  

Общее
Уникальный идентификатор : 227409819846869034724086844339775411915 (0xAB1589C572E2CC5FFE955F53742116CB)
Полное имя : D:\The.Loudest.Voice.S01.720p.TVShows\The.Loudest.Voice.S01E01.720p.TVShows.mkv
Формат : Matroska
Версия формата : Version 4 / Version 2
Размер файла : 1,61 Гбайт
Продолжительность : 54 м. 17 с.
Общий поток : 4249 Кбит/сек
Дата кодирования : UTC 2019-07-26 06:57:02
Программа кодирования : mkvmerge v33.1.0 ('Primrose') 64-bit
Библиотека кодирования : libebml v1.3.7 + libmatroska v1.5.0

Видео
Идентификатор : 1
Формат : AVC
Формат/Информация : Advanced Video Codec
Профиль формата : High@L3.1
Параметр CABAC формата : Да
Параметр RefFrames формата : 4 кадра
Идентификатор кодека : V_MPEG4/ISO/AVC
Продолжительность : 54 м. 17 с.
Вид битрейта : Постоянный
Битрейт : 3141 Кбит/сек
Номинальный битрейт : 6000 Кбит/сек
Ширина : 1280 пикселей
Высота : 720 пикселей
Соотношение сторон : 16:9
Режим частоты кадров : Постоянный
Частота кадров : 23,976 (24000/1001) кадра/сек
Цветовое пространство : YUV
Субдискретизация насыщенности : 4:2:0
Битовая глубина : 8 бит
Тип развёртки : Прогрессивная
Бит/(Пиксели*Кадры) : 0.142
Размер потока : 1,19 Гбайт (74%)
Язык : English
Default : Да
Forced : Нет
Цветовой диапазон : Limited
Основные цвета : BT.709
Характеристики трансфера : BT.709
Коэффициенты матрицы : BT.709

Аудио #1
Идентификатор : 2
Формат : AC-3
Формат/Информация : Audio Coding 3
Расширение режима : CM (complete main)
Параметр Endianness формата : Big
Идентификатор кодека : A_AC3
Продолжительность : 54 м. 17 с.
Вид битрейта : Постоянный
Битрейт : 384 Кбит/сек
Каналы : 6 каналов
Расположение каналов : Front: L C R, Side: L R, LFE
Частота : 48,0 КГц
Частота кадров : 31,250 кадров/сек (1536 spf)
Метод сжатия : С потерями
Размер потока : 149 Мбайт (9%)
Заголовок : TVShows
Язык : Russian
Default : Да
Forced : Да

Аудио #2
Идентификатор : 3
Формат : E-AC-3
Формат/Информация : Audio Coding 3
Параметр Endianness формата : Big
Идентификатор кодека : A_EAC3
Продолжительность : 54 м. 17 с.
Вид битрейта : Постоянный
Битрейт : 640 Кбит/сек
Каналы : 6 каналов
Расположение каналов : Front: L C R, Side: L R, LFE
Частота : 48,0 КГц
Частота кадров : 187,500 кадров/сек (256 spf)
Метод сжатия : С потерями
Задержка видео : 18 мс.
Размер потока : 249 Мбайт (15%)
Заголовок : Original
Язык : English
Default : Нет
Forced : Нет

Текст
Идентификатор : 4
Формат : UTF-8
Идентификатор кодека : S_TEXT/UTF8
Идентификатор кодека/Информация : UTF-8 Plain Text
Заголовок : English
Язык : English
Default : Нет
Forced : Нет

Внимание! Раздача ведётся путём добавления новых серий; при каждом добавлении создаётся новый торрент.
Чтобы начать докачку новой серии, пользователям необходимо сделать следующее:
1. Остановить скачивание;
2. Удалить старый торрент у себя из клиента (старые серии удалять не надо);
3. Скачать новый торрент и запустить его у себя в клиенте вместо старого, при этом указать клиенту путь в старую папку куда и должно происходить скачивание новых серий. Ваш клиент при этом должен произвести хеширование (проверку) старой папки и будет докачивать только те серии, которых у вас ещё нет. Старые серии при этом не удаляются, а продолжают раздаваться! Eсли вы уже удалили старые серии, то предотвратить повторную закачку старых серий можно, отжав галочку в соответствующих местах при запуске нового торрента.
piratbit.xyz



Скачать Самый громкий голос через торрент http://a.radikal.ru/a16/1908/1c/1ea4c978a0be.jpg Скачать фильм Самый громкий голос через торрент бесплантно в хорошем качестве Описание: Хроника последних десяти лет жизни Роджера Эйлса, генерального директора Fox News, а также медиаконсультанта нескольких ... 8 10 3
Торрент: Зарегистрирован [2019-08-14 09:48] · скачан: 3 раз
Статус: √ проверено
Размер: 12.55 GB
Как cкачать? Как скачать Самый громкий голос через торрент | qTorrent

% Раздел Тема Автор DL S | L
Зарубежные сериалы [ 16.9 GB ] Самый громкий голос / The Loudest Voice / Сезон: 1 / Серии: 1-5 из 7 [2019 WEB-DL 1080p] MVO [Novamedia] bober100 Скачать
1 | 0
Зарубежные сериалы [ 8.67 GB ] Самый громкий голос / The Loudest Voice / Сезон: 1 / Серии: 1-5 из 7 [2019 WEB-DL 720p] MVO [Novamedia] bober100 Скачать
2 | 0
Зарубежные сериалы [ 23.92 GB ] Самый громкий голос / The Loudest Voice / Сезон: 1 / Серии: 1-7 из 7 [2019 WEB-DL 1080p] [MVO] killermax2013 Скачать
1 | 0
Зарубежные сериалы [ 3.44 GB ] Самый громкий голос / The Loudest Voice / Сезон: 1 / Серии: 1-5 из 7 [2019 WEB-DLRip] [MVO] killermax2013 Скачать
1 | 0
Зарубежные сериалы [ 10.93 GB ] Самый громкий голос / The Loudest Voice / Сезон: 1 / Серия 2 из 7 [2019 UHD WEB-DL 2160p] [SDR] MVO [Amedia] sheker187 Скачать
1 | 0


>> Регистрируемся здесь <<






Отзывы и комментарии о схеме читаем и пишем здесь: ---> Отзывы и комментарии о схеме

Новые благодарочки в телеграм довольных пользователей:
скриншот   скриншот   скриншот   скриншот   скриншот
    Дорогой пользователь! Огромная просьба, поблагодарите релизера, оцените раздачу и оставьте свои комментарий, если Вы скачали Самый громкий голос через торрент бесплатно! Внесите свою лепту в развитие PiratBit!
    Комментировать посты могут только пользователи прошедшие не сложную регистрацию
    Показать сообщения:    

    Самый громкий голос через торрент
    Скачать бесплатно Самый громкий голос
    Самый громкий голос скачать торрент
    Самый громкий голос смотреть онлайн
    Cкачать фильм Самый громкий голос бесплатно
    Самый громкий голос скачать торрент в хорошем качестве
    Самый громкий голос смотреть онлайн бесплатно в хорошем качестве


    Вы не можете начинать темы
    Вы не можете отвечать на сообщения
    Вы не можете редактировать свои сообщения
    Вы не можете удалять свои сообщения
    Вы не можете голосовать в опросах
    Вы не можете прикреплять файлы к сообщениям
    Вы можете скачивать файлы