новый адрес
Ссылка на приватное зеркало всего за 1$. Внимание количество ограничено!!!

iTunes

1+1

iTunes

мы

WEB-DL

1

iTunes

Чернобыль

iTunes

Ральф против интернета

Лицензия

ПШазам

Лицензия

Оно 2

Лицензия

30
pack

Вам бонус

ВАЖНО

!!Акция!!

Alien_RageХит недели

RePack

Resident Evil 21

ИГРА 18+

pack

RePack

jed

!!Акция!!

Alien_Rage

RePack

fifa19

RePack

Assassins Creed: Odyssey

RePack

NEED FOR SPEED™ PAYBACK

3 сезон

9 сезон

Бесстыжие 9 сезон

Все сериалы

все сериалы на PB.wtf

RePack

FAR CRY 5
Ребята, катастрофически не хватает 1900р. для оплаты серверов за Октябрь (всвязи с блокировками трафик упал в 3 раза), 1-2р., выручайте.
  

Рая знает всё! / Сезон: 1 / Серии: 1-50 из 50 (Анатолий Артамонов, Руслан Паушу) [2019, Комедия, мелодрама, HDTVRip 720p] piratbit.xyz

Рая знает всё! через торрент piratbit.xyz

Размер: 70.71 GB | Добавлен: 3 мес. 26 д. назад | Торрент скачан:8 раз
Скачать  

22-07-2019 13:51 Рая знает всё! Скачать торрент  

Рая знает всё!
Год выпуска: 2019
Страна: Россия
Жанр: Комедия, мелодрама
Продолжительность: ~ 00:49:00
Субтитры: отсутствуют

Режиссер: Анатолий Артамонов, Руслан Паушу



В ролях: Анастасия Веденская, Сергей Губанов, Сергей Рудзевич, Виолетта Давыдовская, Любовь Германова, Елена Волхонская, Ирина Пулина, Елена Муравьёва, Евгения Шипова, Елена Полякова, Валерия Яковлева, Елена Дубровская, Дмитрий Калистратов, Андрей Москвичёв и др.

Описание: Рая Полуйчик – женщина энергичная и активная. Она работает парикмахером в салоне эконом-класса, очень хочет замуж и детишек, но на любовном фронте терпит поражение за поражением. Ее новая надежда – интеллигентный участковый Владимир Костюков, прибывший из Москвы. Несмотря на сопротивление, Рая немедленно берет его под крыло, помогая в быту и в работе. Но плавному развитию отношений Раи и Костюкова постоянно что-то мешает: к Костюкову возвращается жена, которая передумала разводиться, за Раей бегает ее бывший ухажер и влюбленный скульптор, а некоторые «подруги» так и вовсе распускают некрасивые слухи и пытаются отбить Костюкова!

Качество: HDTVRip 720p
Формат: MKV

Видео: 1280х720, (16:9), 25 fps, AVC MPEG-4 (x264), High@L4.1 ~ 4000 kbps , 0.174 bit/pixel
Аудио: 48 kHz, АС3, 2/0 (L,R), ~192.00 kbps avg
скриншот  скриншот  скриншот  скриншот  

Общее
Уникальный идентификатор : 189071553058444900366524019919886318123 (0x8E3DDB47F4A4B9CFB684E95D43857A2B)
Полное имя : C:\Raya.znaet.vse.2019.HDTVRip.(720p).ExKinoRay\Raya.znaet.vse.(01.seriya).2019.HDTVRip.(720p).ExKinoRay.mkv
Формат : Matroska
Версия формата : Version 4
Размер файла : 1,42 Гбайт
Продолжительность : 48 м. 29 с.
Общий поток : 4193 Кбит/сек
Дата кодирования : UTC 2019-07-26 16:54:00
Программа кодирования : mkvmerge v6.9.1 (''Blue Panther'') 64bit built on Apr 18 2014 18:23:38
Библиотека кодирования : libebml v1.3.0 + libmatroska v1.4.1

Видео
Идентификатор : 1
Формат : AVC
Формат/Информация : Advanced Video Codec
Профиль формата : High@L4.1
Настройки формата : CABAC / 9 Ref Frames
Параметр CABAC формата : Да
Параметр RefFrames формата : 9 кадров
Идентификатор кодека : V_MPEG4/ISO/AVC
Продолжительность : 48 м. 29 с.
Битрейт : 4000 Кбит/сек
Ширина : 1280 пикселей
Высота : 720 пикселей
Соотношение сторон : 16:9
Режим частоты кадров : Постоянный
Частота кадров : 25,000 кадров/сек
Цветовое пространство : YUV
Субдискретизация насыщенности : 4:2:0
Битовая глубина : 8 бит
Тип развёртки : Прогрессивная
Бит/(Пиксели*Кадры) : 0.174
Размер потока : 1,33 Гбайт (93%)
Библиотека кодирования : x264 core 146 r2538 121396c
Настройки программы : cabac=1 / ref=9 / deblock=1:-3:-3 / analyse=0x3:0x113 / me=umh / subme=11 / psy=1 / psy_rd=1.00:0.20 / mixed_ref=1 / me_range=32 / chroma_me=1 / trellis=2 / 8x8dct=1 / cqm=0 / deadzone=21,11 / fast_pskip=0 / chroma_qp_offset=-3 / threads=16 / lookahead_threads=8 / sliced_threads=0 / nr=0 / decimate=0 / interlaced=0 / bluray_compat=0 / constrained_intra=0 / bframes=11 / b_pyramid=2 / b_adapt=2 / b_bias=0 / direct=3 / weightb=1 / open_gop=0 / weightp=2 / keyint=250 / keyint_min=25 / scenecut=40 / intra_refresh=0 / rc_lookahead=60 / rc=2pass / mbtree=1 / bitrate=4000 / ratetol=1.0 / qcomp=0.60 / qpmin=0 / qpmax=69 / qpstep=4 / cplxblur=20.0 / qblur=0.5 / vbv_maxrate=14000 / vbv_bufsize=14000 / nal_hrd=none / filler=0 / ip_ratio=1.40 / aq=3:1.40
Default : Нет
Forced : Нет
Цветовой диапазон : Limited
Основные цвета : BT.709
Характеристики трансфера : BT.709
Коэффициенты матрицы : BT.709

Аудио
Идентификатор : 2
Формат : AC-3
Формат/Информация : Audio Coding 3
Коммерческое название : Dolby Digital
Идентификатор кодека : A_AC3
Продолжительность : 48 м. 29 с.
Вид битрейта : Постоянный
Битрейт : 192 Кбит/сек
Каналы : 2 канала
ChannelLayout : L R
Частота : 48,0 КГц
Частота кадров : 31,250 кадров/сек (1536 SPF)
Битовая глубина : 16 бит
Метод сжатия : С потерями
Размер потока : 66,6 Мбайт (5%)
Язык : Russian
ServiceKind/String : Complete Main
Default : Да
Forced : Да

Внимание! Раздача ведётся путём добавления новых серий; при каждом добавлении создаётся новый торрент.
Чтобы начать докачку новой серии, пользователям необходимо сделать следующее:
1. Остановить скачивание;
2. Удалить старый торрент у себя из клиента (старые серии удалять не надо);
3. Скачать новый торрент и запустить его у себя в клиенте вместо старого, при этом указать клиенту путь в старую папку куда и должно происходить скачивание новых серий. Ваш клиент при этом должен произвести хеширование (проверку) старой папки и будет докачивать только те серии, которых у вас ещё нет. Старые серии при этом не удаляются, а продолжают раздаваться! Eсли вы уже удалили старые серии, то предотвратить повторную закачку старых серий можно, отжав галочку в соответствующих местах при запуске нового торрента.
Закрыть
piratbit.xyz



Скачать Рая знает всё! через торрент https://i89.fastpic.ru/big/2019/0722/ee/5660a7ae83e2181b91c58c127d15f9ee.jpg Скачать фильм Рая знает всё! через торрент бесплантно в хорошем качестве Описание: Рая Полуйчик – женщина энергичная и активная. Она работает парикмахером в салоне эконом-класса, очень хочет замуж и детишек, но ... 10 10 5
Info! Золотая раздача, скачанное не засчитывается.
Торрент: Зарегистрирован [2019-08-16 15:58] · скачан: 8 раз
Статус: √ проверено
Размер: 70.71 GB
Как cкачать? Как скачать Рая знает всё! через торрент | qTorrent

% Раздел Тема Автор DL S | L
Наши сериалы [ 30.44 GB ] Рая знает всё! / Сезон: 1 / Серии: 1-50 из 50 [2019 WEBRip-AVC] bober100 Скачать
1 | 0
Наши сериалы [ 30.6 GB ] Рая знает всё! / Сезон: 1 / Серии: 1-50 из 50 [2019 WEB-DLRip] bober100 Скачать
1 | 0

28-11-2019 20:33  

Отключить всю рекламу на сайте

    Дорогой пользователь! Огромная просьба, поблагодарите релизера, оцените раздачу и оставьте свои комментарий, если Вы скачали Рая знает всё! через торрент бесплатно! Внесите свою лепту в развитие PiratBit!
    Комментировать посты могут только пользователи прошедшие не сложную регистрацию
    Показать сообщения:    

    Рая знает всё! через торрент
    Скачать бесплатно Рая знает всё!
    Рая знает всё! скачать торрент
    Рая знает всё! смотреть онлайн
    Cкачать фильм Рая знает всё! бесплатно
    Рая знает всё! скачать торрент в хорошем качестве
    Рая знает всё! смотреть онлайн бесплатно в хорошем качестве


    Вы не можете начинать темы
    Вы не можете отвечать на сообщения
    Вы не можете редактировать свои сообщения
    Вы не можете удалять свои сообщения
    Вы не можете голосовать в опросах
    Вы не можете прикреплять файлы к сообщениям
    Вы можете скачивать файлы