Ссылка на приватное зеркало всего за 1$. Внимание количество ограничено!!!


iTunes

1+1

iTunes

мы

WEB-DL

1

iTunes

Чернобыль

iTunes

Ральф против интернета

Лицензия

ПШазам

Лицензия

Оно 2

WEB-DL

30
pack

Вам бонус

ВАЖНО

!!Акция!!

Alien_RageХит недели

RePack

Resident Evil 21

ИГРА 18+

pack

RePack

jed

!!Акция!!

Alien_Rage

RePack

fifa19

RePack

Assassins Creed: Odyssey

RePack

NEED FOR SPEED™ PAYBACK

4 сезон

9 сезон

Бесстыжие 9 сезон

Все сериалы

все сериалы на PB.wtf

RePack

FAR CRY 5
Ребята, катастрофически не хватает 1900р. для оплаты серверов за Октябрь (всвязи с блокировками трафик упал в 3 раза), 1-2р., выручайте.
  

SuperЗять / Le gendre de ma vie (Франсуа Дезанья) [2018, комедия, BDRip 720p] DUB [iTunes] piratbit.xyz

SuperЗять через торрент piratbit.xyz

Раздают: 9 [ 72 KB/s ]
Размер: 3.86 GB | Добавлен: 13 д. назад | Торрент скачан:58 раз
Скачать  

17-05-2019 20:47 SuperЗять Скачать торрент  

SuperЗять / Le gendre de ma vie Год выпуска: 2018
Страна: Франция
Жанр: комедия
Продолжительность: 01:40:50
Перевод: Дублированный | iTunes
Субтитры: French

Режиссер: Франсуа Дезанья

rating

В ролях: Кад Мерад, Полин Этьен, Жюли Гайе, Франсуа Деблок, Забу Брайтман, Гийом Лаббе, Хлоя Жуанне, Луиз Колдефи, Жереми Лопез, Беранжер Криеф

Описание: Если папа - псих, который в каждом твоём случайном знакомом видит своего будущего зятя - это большая проблема! Твоя старшая сестра доведена папиными выходками до отчаяния и решает скрыть свою свадьбу. А младшая уже вовсю борется за права женщин. И вы решаете его проучить...

Качество: BDRip 720p
Формат: MKV

Видео: h.264, 4695 Kb/s, 1280х536
Аудио#1: Russian: AC3, 6 ch, 384 Kb/s
Аудио#1: French: AC3, 6 ch, 384 Kb/s
скриншот  скриншот  скриншот  скриншот  

General
Unique ID : 252726091216817267526891850647021077835 (0xBE21465171BB4130BEB1AA14A1BCC54B)
Complete name : SuperZyat.2018.720p.BluRay.ELEKTRI4KA.UNIONGANG.mkv
Format : Matroska
Format version : Version 4
File size : 3.86 GiB
Duration : 1 h 40 min
Overall bit rate : 5 474 kb/s
Encoded date : UTC 2019-12-01 17:43:04
Writing application : mkvmerge v8.3.0 ('Over the Horizon') 64bit
Writing library : libebml v1.3.1 + libmatroska v1.4.2

Video
ID : 1
Format : AVC
Format/Info : Advanced Video Codec
Format profile : High@L4.1
Format settings : CABAC / 4 Ref Frames
Format settings, CABAC : Yes
Format settings, Reference frames : 4 frames
Codec ID : V_MPEG4/ISO/AVC
Duration : 1 h 40 min
Bit rate : 4 695 kb/s
Width : 1 280 pixels
Height : 536 pixels
Display aspect ratio : 2.40:1
Frame rate mode : Constant
Frame rate : 23.976 (24000/1001) FPS
Color space : YUV
Chroma subsampling : 4:2:0
Bit depth : 8 bits
Scan type : Progressive
Bits/(Pixel*Frame) : 0.285
Stream size : 3.30 GiB (86%)
Writing library : x264 core 152 r2851 ba24899
Encoding settings : cabac=1 / ref=3 / deblock=1:0:0 / analyse=0x3:0x113 / me=hex / subme=7 / psy=1 / psy_rd=1.00:0.00 / mixed_ref=1 / me_range=16 / chroma_me=1 / trellis=1 / 8x8dct=1 / cqm=0 / deadzone=21,11 / fast_pskip=1 / chroma_qp_offset=-2 / threads=17 / lookahead_threads=2 / sliced_threads=0 / nr=0 / decimate=1 / interlaced=0 / bluray_compat=0 / constrained_intra=0 / bframes=3 / b_pyramid=2 / b_adapt=1 / b_bias=0 / direct=1 / weightb=1 / open_gop=0 / weightp=2 / keyint=240 / keyint_min=23 / scenecut=40 / intra_refresh=0 / rc_lookahead=40 / rc=2pass / mbtree=1 / bitrate=4695 / ratetol=1.0 / qcomp=0.60 / qpmin=0 / qpmax=69 / qpstep=4 / cplxblur=20.0 / qblur=0.5 / vbv_maxrate=62500 / vbv_bufsize=78125 / nal_hrd=none / filler=0 / ip_ratio=1.40 / aq=1:1.00
Language : French
Default : Yes
Forced : No

Audio #1
ID : 2
Format : AC-3
Format/Info : Audio Coding 3
Commercial name : Dolby Digital
Codec ID : A_AC3
Duration : 1 h 40 min
Bit rate mode : Constant
Bit rate : 384 kb/s
Channel(s) : 6 channels
Channel layout : L R C LFE Ls Rs
Sampling rate : 48.0 kHz
Frame rate : 31.250 FPS (1536 SPF)
Bit depth : 16 bits
Compression mode : Lossy
Stream size : 277 MiB (7%)
Title : iTunes (ELEKTRI4KA.UNIONGANG)
Language : Russian
Service kind : Complete Main
Default : Yes
Forced : No

Audio #2
ID : 3
Format : AC-3
Format/Info : Audio Coding 3
Commercial name : Dolby Digital
Codec ID : A_AC3
Duration : 1 h 40 min
Bit rate mode : Constant
Bit rate : 384 kb/s
Channel(s) : 6 channels
Channel layout : L R C LFE Ls Rs
Sampling rate : 48.0 kHz
Frame rate : 31.250 FPS (1536 SPF)
Bit depth : 16 bits
Compression mode : Lossy
Stream size : 277 MiB (7%)
Language : French
Service kind : Complete Main
Default : No
Forced : No

Text
ID : 4
Format : PGS
Muxing mode : zlib
Codec ID : S_HDMV/PGS
Codec ID/Info : Picture based subtitle format used on BDs/HD-DVDs
Duration : 1 h 40 min
Bit rate : 12.3 kb/s
Count of elements : 3814
Stream size : 8.81 MiB (0%)
Language : French
Default : Yes
Forced : No

Menu
00:00:00.000 : en:
00:06:56.457 : en:
00:17:41.435 : en:
00:24:04.276 : en:
00:32:06.382 : en:
00:39:22.568 : en:
00:50:35.282 : en:
00:58:30.465 : en:
01:09:10.521 : en:
01:18:42.634 : en:
01:29:35.620 : en:
01:35:32.226 : en:

piratbit.xyz



Скачать SuperЗять через торрент https://i5.imageban.ru/out/2019/12/01/3d49fbcc82c12e4bf9a0253518f1f894.png Скачать фильм SuperЗять через торрент бесплантно в хорошем качестве Описание: Если папа - псих, который в каждом твоём случайном знакомом видит своего будущего зятя - это большая проблема! Твоя старшая ... 10 10 6
Торрент: Зарегистрирован [2019-12-02 17:00] · скачан: 58 раз
Статус: T временная
Размер: 3.86 GB
Как cкачать? Как скачать SuperЗять через торрент | qTorrent

% Раздел Тема Автор DL S | L
Фильмы 2018 [DVDrip, WEB-DLRip, HDrip] (DUB, MVO) [ 1.46 GB ] SuperЗять / Le gendre de ma vie [2018 HDRip] killermax2013 Скачать
20 | 0
T Фильмы [HD 720p, 1080p] (Хороший звук DUB, MVO) [ 7.14 GB ] SuperЗять / Le gendre de ma vie [2018 BDRip 1080p] bober100 Скачать
2 | 2

28-11-2019 20:33  

Отключить всю рекламу на сайте

    Дорогой пользователь! Огромная просьба, поблагодарите релизера, оцените раздачу и оставьте свои комментарий, если Вы скачали SuperЗять через торрент бесплатно! Внесите свою лепту в развитие PiratBit!
    Комментировать посты могут только пользователи прошедшие не сложную регистрацию
    Показать сообщения:    

    SuperЗять через торрент
    Скачать бесплатно SuperЗять
    SuperЗять скачать торрент
    SuperЗять смотреть онлайн
    Cкачать фильм SuperЗять бесплатно
    SuperЗять скачать торрент в хорошем качестве
    SuperЗять смотреть онлайн бесплатно в хорошем качестве


    Вы не можете начинать темы
    Вы не можете отвечать на сообщения
    Вы не можете редактировать свои сообщения
    Вы не можете удалять свои сообщения
    Вы не можете голосовать в опросах
    Вы не можете прикреплять файлы к сообщениям
    Вы можете скачивать файлы