Ссылка на приватное зеркало всего за 1$. Внимание количество ограничено!!!

iTunes

1+1

iTunes

мы

MV0

1

WEB-DLRip

Джокер

Пифагор

Ведьмак / The Witcher сериал

iTunes

ПШазам

iTunes

Оно 2

iTunes

30
pack

Вам бонус

ВАЖНО

!!Акция!!

Alien_RageХит недели

RePack

Resident Evil 21

ИГРА 18+

pack

RePack

jed

!!Акция!!

Alien_Rage

RePack

fifa19

RePack

Assassins Creed: Odyssey

RePack

NEED FOR SPEED™ PAYBACK

4 сезон

9 сезон

Бесстыжие 9 сезон

Все сериалы

все сериалы на PB.wtf

RePack

FAR CRY 5
  

С Богами: Последние 49 дней /Singwa hamkke: ingwa yeon (Ким Ён-хва) [2018 г., Драма, фэнтези, приключения, WEB-DLRip 720p, Любительский (многоголосый)(КОЛОБОК)] piratbit.xyz

С Богами: Последние 49 дней через торрент piratbit.xyz

Размер: 4.84 GB | Добавлен: 1 год 5 мес. назад | Торрент скачан:248 раз
Скачать  

21-09-2018 04:47 С Богами: Последние 49 дней Скачать торрент  

С Богами: Последние 49 дней / Singwa hamkke: ingwa yeon
Год выпуска: 2018
Страна: Корея Южная
Жанр: Драма, фэнтези, приключения
Продолжительность: 02:21:03
Перевод: Любительский (многоголосый)(КОЛОБОК)
Субтитры: Отсутствуют

Режиссер: Ким Ён-хва

rating

В ролях: Ха Джон-у, Чу Джи-хун, Ким Хян-ги, Ма Дон-сок, Ким Дон-ук, Ли Джон-джэ, Чо Хан-чхоль, Лим Вон-хи, Ким Мён-гон, Чон Ю-ан

Описание: Три ангела смерти ведут по судам очередного смертного, когда сталкиваются с Богом домашнего очага, Домовым. Оказывается, что тот помнит их прошлое длиной более тысячи лет. Ангелы пускаются в путешествие между мирами, чтобы выяснить подробности своих прошлых жизней и связь друг с другом.

Доп. информация: Присутствуют вставки текстовой рекламы

Качество: WEB-DLRip 720p
Формат:MKV
Видео кодек: H.264
Аудио кодек: AC3
Видео: H.264/AVC, 1280x536, ~4528 Kbps
Аудио#1: AC-3, 48.0 KHz, 2 ch, 384 Kbps
скриншот   скриншот   скриншот   скриншот  

Общее
Полное имя : E:\NNM\С Богами\The Last 49 Days 2018 WEB-DLRip 720p-LQ.mkv
Формат : Matroska
Версия формата : Version 2
Размер файла : 4,84 Гбайт
Продолжительность : 2 ч. 21 м.
Режим общего битрейта : Переменный
Общий поток : 4910 Кбит/сек
Программа кодирования : libmatroska 1.4.1

Видео
Идентификатор : 1
Формат : AVC
Формат/Информация : Advanced Video Codec
Профиль формата : High@L4.1
Настройки формата : CABAC / 4 Ref Frames
Параметр CABAC формата : Да
Параметр RefFrames формата : 4 кадра
Идентификатор кодека : V_MPEG4/ISO/AVC
Продолжительность : 2 ч. 21 м.
Вид битрейта : Переменный
Битрейт : 4528 Кбит/сек
Максимальный битрейт : 5000 Кбит/сек
Ширина : 1280 пикселей
Высота : 536 пикселей
Соотношение сторон : 2,40:1
Режим частоты кадров : Постоянный
Частота кадров : 23,976 (24000/1001) кадра/сек
Стандарт вещания : Component
Цветовое пространство : YUV
Субдискретизация насыщенности : 4:2:0
Битовая глубина : 8 бит
Тип развёртки : Прогрессивная
Бит/(Пиксели*Кадры) : 0.269
Размер потока : 4,36 Гбайт (90%)
Default : Нет
Forced : Нет
Цветовой диапазон : Limited
Основные цвета : BT.709
Характеристики трансфера : BT.709
Коэффициенты матрицы : BT.709

Аудио
Идентификатор : 2
Формат : AC-3
Формат/Информация : Audio Coding 3
Идентификатор кодека : A_AC3
Продолжительность : 2 ч. 21 м.
Вид битрейта : Постоянный
Битрейт : 384 Кбит/сек
Каналы : 2 канала
Расположение каналов : Front: L R
Частота : 48,0 КГц
Частота кадров : 31,250 кадров/сек (1536 SPF)
Битовая глубина : 16 бит
Метод сжатия : С потерями
Размер потока : 387 Мбайт (8%)
ServiceKind/String : Complete Main
Default : Нет

piratbit.xyz



Скачать С Богами: Последние 49 дней через торрент http://pic1.kartinco.top/images/11/tha5p.jpg Скачать фильм С Богами: Последние 49 дней через торрент бесплантно в хорошем качестве Описание: Три ангела смерти ведут по судам очередного смертного, когда сталкиваются с Богом домашнего очага, Домовым. Оказывается, что тот ... 8.7 10 7
Info! Золотая раздача, скачанное не засчитывается.
Торрент: Зарегистрирован [2018-09-21 04:47] · скачан: 248 раз
Статус: T временная
Размер: 4.84 GB
Как cкачать? Как скачать С Богами: Последние 49 дней через торрент | qTorrent

% Раздел Тема Автор DL S | L
Азиатские фильмы [ 9.25 GB ] С Богами: Последние 49 дней / Singwa hamkke: ingwa yeon [2018 BDRip 720p] MVO; 2x DVO -Lexx- Скачать
1 | 0

28-11-2019 20:33  

Отключить всю рекламу на сайте

14-02-2020 07:28 С Богами: Последние 49 дней Скачать торрент  

    Дорогой пользователь! Огромная просьба, поблагодарите релизера, оцените раздачу и оставьте свои комментарий, если Вы скачали С Богами: Последние 49 дней через торрент бесплатно! Внесите свою лепту в развитие PiratBit!
    Комментировать посты могут только пользователи прошедшие не сложную регистрацию
    Показать сообщения:    

    С Богами: Последние 49 дней через торрент
    Скачать бесплатно С Богами: Последние 49 дней
    С Богами: Последние 49 дней скачать торрент
    С Богами: Последние 49 дней смотреть онлайн
    Cкачать фильм С Богами: Последние 49 дней бесплатно
    С Богами: Последние 49 дней скачать торрент в хорошем качестве
    С Богами: Последние 49 дней смотреть онлайн бесплатно в хорошем качестве


    Вы не можете начинать темы
    Вы не можете отвечать на сообщения
    Вы не можете редактировать свои сообщения
    Вы не можете удалять свои сообщения
    Вы не можете голосовать в опросах
    Вы не можете прикреплять файлы к сообщениям
    Вы можете скачивать файлы