Ссылка на приватное зеркало всего за 1$. Внимание количество ограничено!!!

iTunes

1+1

iTunes

мы

MV0

1

WEB-DLRip

Джокер

Пифагор

Ведьмак / The Witcher сериал

iTunes

ПШазам

iTunes

Оно 2

iTunes

30
pack

Вам бонус

ВАЖНО

!!Акция!!

Alien_RageХит недели

RePack

Resident Evil 21

ИГРА 18+

pack

RePack

jed

!!Акция!!

Alien_Rage

RePack

fifa19

RePack

Assassins Creed: Odyssey

RePack

NEED FOR SPEED™ PAYBACK

4 сезон

9 сезон

Бесстыжие 9 сезон

Все сериалы

все сериалы на PB.wtf

RePack

FAR CRY 5
  

Бесстыжие / Бесстыдники / Shameless (US) / Сезон: 8 / Серии: 1-12 из 12 (Марк Майлод, Джон Уэллс) [2017, драма, комедия, WEB-DL 1080p] MVO [AlexFilm] piratbit.xyz

Бесстыжие через торрент piratbit.xyz

Раздают: 2 [ 0 KB/s ]
Размер: 41.81 GB | Добавлен: 2 года назад | Торрент скачан:144 раза
Скачать  

21-11-2017 05:30 Бесстыжие Скачать торрент  

✦ Бесстыжие / Бесстыдники / Shameless (US)

Информация о фильме:

✦ Год выпуска: 2017
✦ Страна: США
✦ Жанр: драма, комедия
✦ Продолжительность: ~ 00:58:00
✦ Перевод: Профессиональный многоголосый - AlexFilm
✦ Субтитры: английские

✦ Режиссер: Марк Майлод, Джон Уэллс, Мими Ледер, Санаа Хамри, Питер Сигал

rating

В ролях:

Уильям Х. Мэйси, Эмми Россам, Камерон Монахэн, Джереми Аллен Уайт, Эмма Кинни, Итэн Каткоски, Блейк Александр Джонсон, Бреннан Кэйн Джонсон, Шанола Хэмптон, Стив Хоуи, Джоан Кьюсак, Ноэль Фишер, Эмма Гринвелл, Джэйк Макдорман...

Описание:

Shameless, основанный на одноименном британском сериале, расскажет о семействе Галлагеров из Чикаго. Мать уже давно бросила семью, а отец-алкоголик обычно лежит в отключке, поэтому старшей дочери приходится взять на себя обязанности родителя и воспитывать четверых братьев и сестру.

Информация о файле:

✦ Качество: WEB-DL 1080p
✦ Формат: MKV
✦ Видео кодек: H.264
✦ Аудио кодек: AC3

✦ Видео: ~ 8 300 kbps, 1920x1080
✦ Аудио#1: Rus: AC3, 6 ch, 384 kbps
✦ Аудио#2: Eng: AC3, 6 ch, 384 kbps


Внимание! В сериале присутствуют сцены с обнаженной натурой и ненормативная лексика!
Перевод: Александр Лазарев
Монтаж и сведение звука: Михаил Шорыгин
Роли озвучивали: Евгения Тихонова, Анастасия Флигина, Константин Погодаев, Дмитрий Лунёв, Кирилл Патрино, Михаил Суслов

скриншот   скриншот   скриншот   скриншот  скриншот  скриншот  

Общее
Уникальный идентификатор : 232731397578775384280851919649720181668 (0xAF166FCF7A3DA4EDBBEB1AEEDF1F23A4)
Полное имя : D:\Shameless (US) - Season 8 (AlexFilm) WEB-DL 1080\Shameless.US.s08e01.WEB-DL.1080p.Rus.Eng.AlexFilm.mkv
Формат : Matroska
Версия формата : Version 2
Размер файла : 3,58 Гбайт
Продолжительность : 55 м. 36 с.
Режим общего битрейта : Переменный
Общий поток : 9218 Кбит/сек
Дата кодирования : UTC 2017-11-07 23:20:41
Программа кодирования : mkvmerge v7.8.0 ('River Man') 32bit built on Apr 3 2015 12:11:22
Библиотека кодирования : libebml v1.3.1 + libmatroska v1.4.2

Видео
Идентификатор : 1
Формат : AVC
Формат/Информация : Advanced Video Codec
Профиль формата : High@L4
Параметр CABAC формата : Да
Параметр ReFrames формата : 4 кадра
Идентификатор кодека : V_MPEG4/ISO/AVC
Продолжительность : 55 м. 36 с.
Вид битрейта : Переменный
Битрейт : 8267 Кбит/сек
Максимальный битрейт : 15,0 Мбит/сек
Ширина : 1920 пикселей
Высота : 1080 пикселей
Соотношение сторон : 16:9
Режим частоты кадров : Постоянный
Частота кадров : 23,976 (24000/1001) кадра/сек
Цветовое пространство : YUV
Субдискретизация насыщенности : 4:2:0
Битовая глубина : 8 бит
Тип развёртки : Прогрессивная
Бит/(Пиксели*Кадры) : 0.166
Размер потока : 3,21 Гбайт (90%)
Язык : English
Default : Да
Forced : Нет
Цветовой диапазон : Limited
Основные цвета : BT.709
Характеристики трансфера : BT.709
Коэффициенты матрицы : BT.709

Аудио #1
Идентификатор : 2
Формат : AC-3
Формат/Информация : Audio Coding 3
Расширение режима : CM (complete main)
Параметр Endianness формата : Big
Идентификатор кодека : A_AC3
Продолжительность : 55 м. 36 с.
Вид битрейта : Постоянный
Битрейт : 384 Кбит/сек
Каналы : 6 каналов
Расположение каналов : Front: L C R, Side: L R, LFE
Частота : 48,0 КГц
Частота кадров : 31,250 кадров/сек (1536 spf)
Метод сжатия : С потерями
Размер потока : 153 Мбайт (4%)
Язык : Russian
Default : Да
Forced : Нет

Аудио #2
Идентификатор : 3
Формат : AC-3
Формат/Информация : Audio Coding 3
Расширение режима : CM (complete main)
Параметр Endianness формата : Big
Идентификатор кодека : A_AC3
Продолжительность : 55 м. 36 с.
Вид битрейта : Постоянный
Битрейт : 384 Кбит/сек
Каналы : 6 каналов
Расположение каналов : Front: L C R, Side: L R, LFE
Частота : 48,0 КГц
Частота кадров : 31,250 кадров/сек (1536 spf)
Метод сжатия : С потерями
Размер потока : 153 Мбайт (4%)
Язык : English
Default : Нет
Forced : Нет

Текст
Идентификатор : 4
Формат : UTF-8
Идентификатор кодека : S_TEXT/UTF8
Идентификатор кодека/Информация : UTF-8 Plain Text
Язык : English
Default : Нет
Forced : Нет

Когда раздача ведётся путём добавления новых серий, при каждом добавлении создётся новый торрент. Чтобы начать докачку новой серии, пользователям необходимо сделать следующее:
(1) остановить скачивание,
(2) удалить старый торрент у себя из клиента (старые серии удалять не надо),
(3) скачать новый торрент и запустить его у себя в клиенте вместо старого, при этом указать клиенту путь в старую папку, куда и должно происходить скачивание новых серий.
Ваш клиент при этом должен произвести хеширование (проверку) старой папки (если не производит сам - помогите ему сделать это), и будет докачивать только те серии, которых у вас ещё нет. Старые серии при этом не удаляются, а продолжают раздаваться!
Eсли вы уже удалили старые серии, то предотвратить повторную закачку старых серий можно, отжав галочку в соответсвующих местах при запуске нового торрента. По возможности, желательно не удалять старые серии как можно дольше, чтобы релизёр не столько продолжал раздавать старые серии, а смог сконцентрироваться на новых.
piratbit.xyz



Скачать Бесстыжие через торрент http://s019.radikal.ru/i620/1711/8c/cbbfd919b16b.png Скачать фильм Бесстыжие через торрент бесплантно в хорошем качестве Описание: Shameless, основанный на одноименном британском сериале, расскажет о семействе Галлагеров из Чикаго. Мать уже давно бросила ... 9.3 10 13
Info! Золотая раздача, скачанное не засчитывается.
Торрент: Зарегистрирован [2018-01-29 09:50] · скачан: 144 раз
Статус: √ проверено
Размер: 41.81 GB
Как cкачать? Как скачать Бесстыжие через торрент | qTorrent

% Раздел Тема Автор DL S | L
Зарубежные сериалы [ 16.8 GB ] Бесстыдники / Бесстыжие / Shameless / Cезон 1 [2011 HDTV 720p] fallen_poet Скачать
1 | 1
Зарубежные сериалы [ 9.45 GB ] Бесстыжие / Бесстыдники / Shameless / Сезон: 10 / Серии: 1-12 из 12 [2019 WEB-DLRip] MVO [AlexFilm] bober100 Скачать
4 | 1
Зарубежные сериалы [ 28.24 GB ] Бесстыжие / Бесстыдники / Shameless / Сезон: 10 / Серии: 1-12 из 12 [2019 WEB-DL 720p] MVO [AlexFilm] bober100 Скачать
2 | 0
Зарубежные сериалы [ 50 GB ] Бесстыжие / Бесстыдники / Shameless / Сезон: 10 / Серия: 1-12 из 12 [2019 WEB-DL 1080p] MVO [AlexFilm] bober100 Скачать
1 | 2
Зарубежные сериалы [ 54.15 GB ] Бесстыжие / Бесстыдники / Shameless / Сезон: 9 / Серии: 1-14 из 14 [2018 WEB-DL 1080p] MVO [AlexFilm] bober100 Скачать
3 | 0
Зарубежные сериалы [ 25.49 GB ] Бесстыжие / Бесстыдники / Shameless / Сезон: 9 / Серии: 1-14 из 14 [2018 WEB-DL 720p] MVO [AlexFilm] bober100 Скачать
1 | 0
Зарубежные сериалы [ 9.3 GB ] Бесстыжие / Бесстыдники / Shameless / Сезон: 9 / Серии: 1-14 из 14 [2018 WEB-DLRip] MVO [AlexFilm] bober100 Скачать
2 | 0


Последний раз редактировалось: bober100 (2018-01-29 09:58), всего редактировалось 10 раз(а)

28-11-2019 20:33  

Отключить всю рекламу на сайте

21-11-2017 13:33 Бесстыжие Скачать торрент  

Классный сериал piratbit.xyz



27-12-2017 14:11 Бесстыжие Скачать торрент  

Уже среда, где 8 серия ало?piratbit.xyz



27-12-2017 18:46 Бесстыжие Скачать торрент  

Podmyha335 писал(а):

Уже среда, где 8 серия ало?

в январеpiratbit.xyz



31-12-2017 11:02 Бесстыжие Скачать торрент  

Podmyha335 писал(а):

Уже среда, где 8 серия ало?

Добавил +8piratbit.xyz



09-01-2018 12:25 Бесстыжие Скачать торрент  

+9piratbit.xyz



16-01-2018 21:05 Бесстыжие Скачать торрент  

+10piratbit.xyz



22-01-2018 16:53 Бесстыжие Скачать торрент  

+11piratbit.xyz



29-01-2018 09:51 Бесстыжие Скачать торрент  

+12. Сезон полностью!!!piratbit.xyz



    Дорогой пользователь! Огромная просьба, поблагодарите релизера, оцените раздачу и оставьте свои комментарий, если Вы скачали Бесстыжие через торрент бесплатно! Внесите свою лепту в развитие PiratBit!
    Комментировать посты могут только пользователи прошедшие не сложную регистрацию
    Показать сообщения:    

    Бесстыжие через торрент
    Скачать бесплатно Бесстыжие
    Бесстыжие скачать торрент
    Бесстыжие смотреть онлайн
    Cкачать фильм Бесстыжие бесплатно
    Бесстыжие скачать торрент в хорошем качестве
    Бесстыжие смотреть онлайн бесплатно в хорошем качестве


    Вы не можете начинать темы
    Вы не можете отвечать на сообщения
    Вы не можете редактировать свои сообщения
    Вы не можете удалять свои сообщения
    Вы не можете голосовать в опросах
    Вы не можете прикреплять файлы к сообщениям
    Вы можете скачивать файлы