новый адрес
Ссылка на приватное зеркало всего за 1$. Внимание количество ограничено!!!

iTunes

1+1

iTunes

мы

iTunes

1

iTunes

Чернобыль

iTunes

Ральф против интернета

Лицензия

ПШазам

Лицензия

Оно 2

Лицензия

30
pack

Вам бонус

ВАЖНО

!!Акция!!

Alien_RageХит недели

RePack

Resident Evil 21

ИГРА 18+

pack

RePack

jed

!!Акция!!

Alien_Rage

RePack

fifa19

RePack

Assassins Creed: Odyssey

RePack

NEED FOR SPEED™ PAYBACK

3 сезон

9 сезон

Бесстыжие 9 сезон

Все сериалы

все сериалы на PB.wtf

RePack

FAR CRY 5
Ребята, катастрофически не хватает 1900р. для оплаты серверов за Октябрь (всвязи с блокировками трафик упал в 3 раза), 1-2р., выручайте.
  

Босс-молокосос / The Boss Baby (Том МакГрат) [2017, мультфильм, комедия, семейный, BDRip 720p] Дубляж - [Лицензия / iTunes] - R.G.Resident piratbit.xyz

Босс-молокосос через торрент piratbit.xyz

Размер: 3.45 GB | Добавлен: 2 года 4 мес. назад | Торрент скачан:819 раз
Скачать  

11-07-2017 15:34 Босс-молокосос Скачать торрент  

Босс-молокосос / The Boss Baby
««Прирождённый лидер»»

Год выпуска: 2017
Страна: США
Жанр: мультфильм, комедия, семейный
Продолжительность: 01:37:30
Перевод: Дубляж - [Лицензия / iTunes]
Субтитры: русские (Forced), русские (Full), английские (Full)
Режиссер: Том МакГрат
В ролях:

Алек Болдуин (Boss Baby, озвучка), Майлз Кристофер Бакши (Tim, озвучка), Тоби Магуайр (Adult Tim / рассказчик, озвучка), Стив Бушеми (Francis Francis, озвучка), Джимми Киммел (Dad, озвучка), Лиза Кудроу (Mom, озвучка), Конрад Вернон (Eugene, озвучка), Джеймс МакГрат (Wizzie / Elvis Impersonator, озвучка), Дэвид Сорен (Jimbo, озвучка), ВивиЭнн Йи (Staci, озвучка), Эрик Белл мл. (Triplets, озвучка), Эди Мирман (Big Boss Baby, озвучка)
Описание:
Эта актуальная во все времена история для взрослых и детей рассказывается от лица семилетнего брата новорожденного - фантазера Тима, который ревнует его к родителям. Но главный герой - совсем не простой ребенок, он обладает лидерскими задатками, уже носит деловые костюмы и во всем видит бизнес-задачу.
Мировая премьера: 12 марта 2017

MPAA: PG - Рекомендуется присутствие родителей
Качество: BDRip 720p Rip by
Формат: MKV
Видео: AVC, 1280x544 (2.35:1), 3167 kbps, 23,976 fps, 0,190 bpp
Аудио №1: русский / AC3 / 5.1 / 48 kHz / 384 kbps /
Аудио №2: английский / DTS / 5.1 / 48 kHz / 1509 kbps / 24 bit
x264 [info]: frame I:1420 Avg QP:13.55 size:104355
x264 [info]: frame P:41287 Avg QP:17.23 size: 30546
x264 [info]: frame B:97573 Avg QP:19.12 size: 9296

General
Unique ID : 196693344080134167876737961913882542844 (0x93F9C297645CD21DB39793CB314C82FC)
Complete name : D:\download\The.Boss.Baby.2017.BDRip 720p by schultz R.G.Resident.mkv
Format : Matroska
Format version : Version 4 / Version 2
File size : 3.45 GiB
Duration : 1 h 37 min
Overall bit rate : 5 063 kb/s
Encoded date : UTC 2017-07-11 15:23:23
Writing application : mkvmerge v8.9.0 ('Father Daughter') 64bit
Writing library : libebml v1.3.3 + libmatroska v1.4.4

Video
ID : 1
Format : AVC
Format/Info : Advanced Video Codec
Format profile : High@L4.1
Format settings, CABAC : Yes
Format settings, ReFrames : 11 frames
Codec ID : V_MPEG4/ISO/AVC
Duration : 1 h 37 min
Bit rate : 3 167 kb/s
Width : 1 280 pixels
Height : 544 pixels
Display aspect ratio : 2.35:1
Frame rate mode : Constant
Frame rate : 23.976 (23976/1000) FPS
Color space : YUV
Chroma subsampling : 4:2:0
Bit depth : 8 bits
Scan type : Progressive
Bits/(Pixel*Frame) : 0.190
Stream size : 2.16 GiB (63%)
Writing library : x264 core 146 r2538 121396c
Encoding settings : cabac=1 / ref=11 / deblock=1:-3:-3 / analyse=0x3:0x113 / me=umh / subme=11 / psy=1 / psy_rd=1.00:0.15 / mixed_ref=1 / me_range=48 / chroma_me=1 / trellis=2 / 8x8dct=1 / cqm=0 / deadzone=21,11 / fast_pskip=0 / chroma_qp_offset=-3 / threads=12 / lookahead_threads=3 / sliced_threads=0 / nr=0 / decimate=0 / interlaced=0 / bluray_compat=0 / constrained_intra=0 / bframes=10 / b_pyramid=2 / b_adapt=2 / b_bias=0 / direct=3 / weightb=1 / open_gop=0 / weightp=2 / keyint=240 / keyint_min=23 / scenecut=40 / intra_refresh=0 / rc_lookahead=40 / rc=2pass / mbtree=0 / bitrate=3167 / ratetol=1.0 / qcomp=0.60 / qpmin=0 / qpmax=69 / qpstep=4 / cplxblur=20.0 / qblur=0.5 / vbv_maxrate=50000 / vbv_bufsize=62500 / nal_hrd=none / filler=0 / ip_ratio=1.40 / pb_ratio=1.30 / aq=1:1.00
Language : English
Default : Yes
Forced : No
Color range : Limited
Color primaries : BT.709
Transfer characteristics : BT.709
Matrix coefficients : BT.709

Audio #1
ID : 2
Format : AC-3
Format/Info : Audio Coding 3
Mode extension : CM (complete main)
Format settings, Endianness : Big
Codec ID : A_AC3
Duration : 1 h 37 min
Bit rate mode : Constant
Bit rate : 384 kb/s
Channel(s) : 6 channels
Channel positions : Front: L C R, Side: L R, LFE
Sampling rate : 48.0 kHz
Frame rate : 31.250 FPS (1536 spf)
Compression mode : Lossy
Stream size : 268 MiB (8%)
Language : Russian
Default : Yes
Forced : No

Audio #2
ID : 3
Format : DTS
Format/Info : Digital Theater Systems
Format profile : ES Matrix / Core
Mode : 16
Format settings, Endianness : Big
Codec ID : A_DTS
Duration : 1 h 37 min
Bit rate mode : Constant
Bit rate : 1 509 kb/s
Channel(s) : 7 channels / 6 channels
Channel positions : Front: L C R, Side: L R, Back: C, LFE / Front: L C R, Side: L R, LFE
Sampling rate : 48.0 kHz
Frame rate : 93.750 FPS (512 spf)
Bit depth : 24 bits
Compression mode : Lossy
Stream size : 1.03 GiB (30%)
Language : English
Default : No
Forced : No

Text #1
ID : 4
Format : UTF-8
Codec ID : S_TEXT/UTF8
Codec ID/Info : UTF-8 Plain Text
Duration : 1 h 19 min
Bit rate : 0 b/s
Count of elements : 21
Stream size : 437 Bytes (0%)
Title : Forced
Language : Russian
Default : Yes
Forced : No

Text #2
ID : 5
Format : UTF-8
Codec ID : S_TEXT/UTF8
Codec ID/Info : UTF-8 Plain Text
Duration : 1 h 36 min
Bit rate : 93 b/s
Count of elements : 1587
Stream size : 65.9 KiB (0%)
Title : Full
Language : Russian
Default : No
Forced : No

Text #3
ID : 6
Format : UTF-8
Codec ID : S_TEXT/UTF8
Codec ID/Info : UTF-8 Plain Text
Duration : 1 h 36 min
Bit rate : 59 b/s
Count of elements : 1568
Stream size : 42.1 KiB (0%)
Title : Full
Language : English
Default : No
Forced : No

Menu
00:00:00.000 : en:00:00:00.000
00:03:45.892 : en:00:03:45.892
00:08:58.288 : en:00:08:58.288
00:11:45.914 : en:00:11:45.914
00:14:59.565 : en:00:14:59.565
00:19:38.219 : en:00:19:38.219
00:22:52.788 : en:00:22:52.788
00:28:27.247 : en:00:28:27.247
00:30:26.116 : en:00:30:26.116
00:33:45.482 : en:00:33:45.482
00:36:57.257 : en:00:36:57.257
00:39:18.356 : en:00:39:18.356
00:42:35.344 : en:00:42:35.344
00:46:20.611 : en:00:46:20.611
00:51:37.720 : en:00:51:37.720
00:53:25.285 : en:00:53:25.285
00:56:28.719 : en:00:56:28.719
00:59:35.405 : en:00:59:35.405
01:04:03.173 : en:01:04:03.173
01:08:15.758 : en:01:08:15.758
01:11:29.911 : en:01:11:29.911
01:16:25.247 : en:01:16:25.247
01:23:10.110 : en:01:23:10.110
01:27:36.960 : en:01:27:36.960

piratbit.xyz



Скачать Босс-молокосос через торрент http://i77.fastpic.ru/big/2016/0417/a7/808a646271c761f7c7d87df3d366b3a7.png Скачать фильм Босс-молокосос через торрент бесплантно в хорошем качестве Описание: Эта актуальная во все времена история для взрослых и детей рассказывается от лица семилетнего брата новорожденного - фантазера ... 10 10 19
Info! Золотая раздача, скачанное не засчитывается.
Торрент: Зарегистрирован [2017-07-11 15:34] · скачан: 819 раз
Статус: √ проверено
Размер: 3.45 GB
Как cкачать? Как скачать Босс-молокосос через торрент | qTorrent

% Раздел Тема Автор DL S | L
R.G.Resident - Мультфильмы, Видео [ 1.96 GB ] Босс-молокосос / The Boss Baby [2017 мультфильм BDRip-AVC] - - R.G.Resident schultz Скачать
1 | 0


>> Переходим по ссылке <<
Автоматически подгузится скрипт который настроит ваш браузер на выигрыш!!
После настройки браузера вероятность выигрыша увеличется в 4.1-4,6 раза.
В течение 6 секунд вам откроется настроенный интерфейс казино, с повышенной вероятностью выигрыша.






Отзывы и комментарии о схеме читаем и пишем здесь: ---> Отзывы и комментарии о схеме

Новые благодарочки в телеграм довольных пользователей:
скриншот   скриншот   скриншот   скриншот   скриншот

30-07-2017 12:29 Босс-молокосос Скачать торрент  

Глуповатый, но довольно забавный мульт.piratbit.xyz



27-10-2019 11:29 Босс-молокосос Скачать торрент  

Детям пойдётpiratbit.xyz



    Дорогой пользователь! Огромная просьба, поблагодарите релизера, оцените раздачу и оставьте свои комментарий, если Вы скачали Босс-молокосос через торрент бесплатно! Внесите свою лепту в развитие PiratBit!
    Комментировать посты могут только пользователи прошедшие не сложную регистрацию
    Показать сообщения:    

    Босс-молокосос через торрент
    Скачать бесплатно Босс-молокосос
    Босс-молокосос скачать торрент
    Босс-молокосос смотреть онлайн
    Cкачать фильм Босс-молокосос бесплатно
    Босс-молокосос скачать торрент в хорошем качестве
    Босс-молокосос смотреть онлайн бесплатно в хорошем качестве


    Вы не можете начинать темы
    Вы не можете отвечать на сообщения
    Вы не можете редактировать свои сообщения
    Вы не можете удалять свои сообщения
    Вы не можете голосовать в опросах
    Вы не можете прикреплять файлы к сообщениям
    Вы можете скачивать файлы