MEGA SALE -50% FORZA HORIZON 4 ULTIMATE+ВСЕ DLC+ОНЛАЙН всего за 599р. 299 руб. (супер цена). Внимание количество ограничено!!!

iTunes

1+1

iTunes

мы

iTunes

1

iTunes

Чернобыль

iTunes

Ральф против интернета

Лицензия

ПШазам

Лицензия

Игра престолов

Лицензия

30
pack

ВАЖНО

!!Акция!!

Alien_RageХит недели

RePack

Resident Evil 21

ИГРА 18+

pack

RePack

Metro:Exodus

!!Акция!!

Alien_Rage

RePack

fifa19

RePack

Assassins Creed: Odyssey

RePack

NEED FOR SPEED™ PAYBACK

3 сезон

9 сезон

Бесстыжие 9 сезон

Все сериалы

все сериалы на PB.wtf

RePack

FAR CRY 5
Ребята, катастрофически не хватает 7730р. для оплаты серверов за АВГУСТ (всвязи с блокировками трафик упал в 3 раза), 1-2р., выручайте.
  

Русские народные сказки (Иван Иванов-Вано, Ольга Ходатаева, Михаил Цехановский...) [1949-1984, СССР, мультфильм, короткометражка, DVDRip от AVP Studio] piratbit.xyz

Русские народные сказки через торрент piratbit.xyz

Размер: 2.16 GB | Добавлен: 3 года 5 мес. назад | Торрент скачан:78 раз
Скачать  

07-04-2016 11:53 Русские народные сказки Скачать торрент  

Русские народные сказки
Страна: СССР
Производство: Союзмультфильм

Жанр: мультфильм, короткометражка
Год выпуска: 1949-1984
Продолжительность: 02:32:11

Перевод: Не требуется
Cубтитры: нет
Оригинальная аудиодорожка: русский

Режиссер: Иван Иванов-Вано, Ольга Ходатаева, Михаил Цехановский...

Описание:
Русская народная сказка (до XVII в. баснь, байка) — произведение устного творчества русского народа, один из видов фольклорной прозы. В русских сказках русский народ пытался высказать своё национальное мироощущение, наставить своих детей в первобытной, но глубокой жизненной мудрости, — разрешая лежавшие на его сердце жизненные, нравственные, семейные, бытовые и государственные вопросы.
В. Я. Пропп, «блистательный исследователь русской сказки» считал, что «сказка содержит какие-то вечные, неувядаемые ценности».
«Союзмультфильм» — крупнейшая в СССР и теперь в России студия мультипликационных фильмов, основанная в Москве 10 июня 1936 года. Студия создана 10 июня 1936 года с названием — «Союздетмультфильм» (из объединения мелких коллективов Мосфильма, Совкино и Межрабпромфильма), а с 20 августа 1937 года ее переименовали в «Союзмультфильм». Огромное количество созданных на «Союзмультфильм» работ - это народные сказки.

Источник: DVD9 R5
Качество видео: DVDRip
Формат видео: AVI

Видео: 704x528 (4:3), 25 fps, XviD ~ 1828 kbps avg, 0.197 bit/pixel
Аудио: 48 kHz, Dolby Digital AC3 2.0, 192 kbps

Раздача от:
01. Гуси-лебеди (1949) 0:18:33
02. Сестрица Аленушка и братец Иванушка (1953) 0:10:11
03. Царевна-лягушка (1954) 0:38:47
04. В некотором царстве… (1957) 0:28:24
05. Молодильные яблоки (1974) 0:19:15
06. Последняя невеста Змея Горыныча (1978) 0:17:50
07. Лиса Патрикеевна (1982) 0:09:49
08. Медведь – липовая нога (1984) 0:09:22
Общее
Полное имя : Russkie.narodnye.skazki.1954.DVDRip_[New-team]_by_AVP_Studio.avi
Формат : AVI
Формат/Информация : Audio Video Interleave
Размер файла : 269 Мбайт
Продолжительность : 18 м.
Общий поток : 2030 Кбит/сек
Программа кодирования : VirtualDubMod 1.5.10.3 | www.virtualdub-fr.org || (build 2550/release)
Библиотека кодирования : VirtualDubMod build 2550/release

Видео
Идентификатор : 0
Формат : MPEG-4 Visual
Профиль формата : Advanced Simple@L5
Параметр BVOP формата : 1
Параметр QPel формата : Нет
Параметр GMC формата : Без точки перехода
Параметр матрицы формата : Выборочная
Идентификатор кодека : XVID
Идентификатор кодека/Подсказка : XviD
Продолжительность : 18 м.
Битрейт : 1828 Кбит/сек
Ширина : 704 пикселя
Высота : 528 пикселей
Соотношение сторон : 4:3
Частота кадров : 25,000 кадров/сек
Цветовое пространство : YUV
Субдискретизация насыщенности : 4:2:0
Битовая глубина : 8 бит
Тип развёртки : Прогрессивная
Метод сжатия : С потерями
Бит/(Пиксели*Кадры) : 0.197
Размер потока : 243 Мбайт (90%)
Библиотека кодирования : XviD 1.2.1 (UTC 2008-12-04)

Аудио
Идентификатор : 1
Формат : AC-3
Формат/Информация : Audio Coding 3
Расширение режима : CM (complete main)
Параметр Endianness формата : Big
Идентификатор кодека : 2000
Продолжительность : 18 м.
Вид битрейта : Постоянный
Битрейт : 192 Кбит/сек
Каналы : 2 канала
Расположение каналов : Front: L R
Частота : 48,0 КГц
Частота кадров : 31,250 кадров/сек (1536 spf)
Метод сжатия : С потерями
Размер потока : 25,5 Мбайт (9%)
Выравнивание : Разделение по промежуткам
Продолжительность промежутка : 40 мс. (1,00 видеокадр)
Время предзагрузки промежутка : 500 мс
piratbit.xyz



Скачать Русские народные сказки через торрент http://s012.radikal.ru/i320/1604/47/967bbe295e6d.png Скачать фильм Русские народные сказки через торрент бесплантно в хорошем качестве Описание:Русская народная сказка (до XVII в. баснь, байка) — произведение устного творчества русского народа, один из видов фольклорной ... 10 10 3
Info! Золотая раздача, скачанное не засчитывается.
Торрент: Зарегистрирован [2016-04-07 11:53] · скачан: 78 раз
Статус: √ проверено
Размер: 2.16 GB
Как cкачать? Как скачать Русские народные сказки через торрент | qTorrent

% Раздел Тема Автор DL S | L
Короткометражные мультфильмы [ 2.18 GB ] Русские народные сказки [1949-1984 СССР мультфильм короткометражка DVDRip-AVC от AVP Studio] AVP Studio Скачать
1 | 0
Детская литература [ 4.22 GB ] Русские народные сказки PDF DjVu FB2 sahambar Скачать
1 | 0
Наши мультфильмы [ 1.04 GB ] Русские народные сказки. Выпуск 2 [1954 Мультфильм. DVDRip] Anonymous Скачать
1 | 0
Наши мультфильмы [ 934 MB ] Русские народные сказки. Выпуск 1 [1949 Мультфильм. DVDRip] Anonymous Скачать
1 | 0
Детская литература [ 589 MB ] народные сказки в обработке А.Афанасьева. - Золотые русские Сказки [смотритe трек лист. 2003] Anonymous Скачать
2 | 0


>> Регистрируемся здесь <<






Отзывы и комментарии о схеме читаем и пишем здесь: ---> Отзывы и комментарии о схеме

Новые благодарочки в телеграм довольных пользователей:
скриншот   скриншот   скриншот   скриншот   скриншот

05-04-2019 14:57 Русские народные сказки Скачать торрент  

Встаньте на раздачу пожалуйстаpiratbit.xyz



    Дорогой пользователь! Огромная просьба, поблагодарите релизера, оцените раздачу и оставьте свои комментарий, если Вы скачали Русские народные сказки через торрент бесплатно! Внесите свою лепту в развитие PiratBit!
    Комментировать посты могут только пользователи прошедшие не сложную регистрацию
    Показать сообщения:    

    Русские народные сказки через торрент
    Скачать бесплатно Русские народные сказки
    Русские народные сказки скачать торрент
    Русские народные сказки смотреть онлайн
    Cкачать фильм Русские народные сказки бесплатно
    Русские народные сказки скачать торрент в хорошем качестве
    Русские народные сказки смотреть онлайн бесплатно в хорошем качестве


    Вы не можете начинать темы
    Вы не можете отвечать на сообщения
    Вы не можете редактировать свои сообщения
    Вы не можете удалять свои сообщения
    Вы не можете голосовать в опросах
    Вы не можете прикреплять файлы к сообщениям
    Вы можете скачивать файлы