Ссылка на приватное зеркало всего за 1$. Внимание количество ограничено!!!

iTunes

1+1

iTunes

мы

MV0

1

WEB-DLRip

Джокер

Пифагор

Ведьмак / The Witcher сериал

iTunes

ПШазам

iTunes

Оно 2

iTunes

30
pack

Вам бонус

ВАЖНО

!!Акция!!

Alien_RageХит недели

RePack

Resident Evil 21

ИГРА 18+

pack

RePack

jed

!!Акция!!

Alien_Rage

RePack

fifa19

RePack

Assassins Creed: Odyssey

RePack

NEED FOR SPEED™ PAYBACK

4 сезон

9 сезон

Бесстыжие 9 сезон

Все сериалы

все сериалы на PB.wtf

RePack

FAR CRY 5
  

Бесстыжие / Бесстыдники / Shameless (US) / Сезон: 6 / Серии 1-12 из 12 / (Марк Майлод / Mark Mylod) [2016 г., драма, комедия, HDTVRip 720р] MVO (AlexFilm) piratbit.xyz

Бесстыжие через торрент piratbit.xyz

Раздают: 1 [ 896 KB/s ]
Размер: 24.81 GB | Добавлен: 3 года 10 мес. назад | Торрент скачан:161 раз
Скачать  

21-01-2016 02:01 Бесстыжие Скачать торрент  


Бесстыжие / Бесстыдники / Shameless (US)

«The Gallaghers: Absolutely, Wildly, Unapologetically...»


  • Год выпуска: 2016
  • Страна: США
  • Жанр: драма, комедия
  • Продолжительность: 00:54:06 (Серия)
  • Перевод: Профессиональный многоголосый закадровый [AlexFilm]

  • Режиссер: Марк Майлод / Mark Mylod
  • В ролях:

    Уильям Х. Мэйси (Frank Gallagher), Эмми Россам (Fiona Gallagher), Джереми Аллен Уайт (Lip Gallagher), Камерон Монахэн (Ian Gallagher), Итан Каткоски (Carl Gallagher), Эмма Кинни (Debbie Gallagher), Шанола Хэмптон (Veronica Fisher), Стив Хоуи (Kevin Ball), Джоан Кьюсак (Sheila Jackson), Ноэль Фишер (Mickey Milkovich), Джастин Чэтвин (Steve), Майкл Патрик МакГилл (Tommy)

  • Описание:
    Shameless, основанный на одноименном британском сериале, расскажет о семействе Галлагеров из Чикаго. Мать уже давно бросила семью, а отец-алкоголик обычно лежит в отключке, поэтому старшей дочери приходится взять на себя обязанности родителя и воспитывать четверых братьев и сестру.
  • Рейтинг:



  • Качество: HDTVRip 720р
  • Формат: :MKV
  • Видео кодек: AVC
  • Аудио кодек: AC-3
  • Видео: 4876 Кбит/сек, 1280*720 (16:9), в 23,976 кадра/сек, AVC
  • Аудио №1: Русский 448 Кбит/сек, 48,0 КГц, 6 каналов, AC-3
  • Аудио №2: Английский 448 Кбит/сек, 48,0 КГц, 6 каналов, AC-3
  • Релиз от: GEKADOL

    Код:

    Внимание! Раздача ведётся путём добавления новых серий; при каждом добавлении создаётся новый торрент. Чтобы начать докачку новой серии, пользователям необходимо сделать следующее:
    (1) остановить скачивание,
    (2) удалить старый торрент у себя из клиента (старые серии удалять не надо),
    (3) скачать новый торрент и запустить его у себя в клиенте вместо старого, при этом указать клиенту путь в старую папку куда и должно происходить скачивание новых серий.
    Ваш клиент при этом должен произвести хеширование (проверку) старой папки (если не производит сам - помогите ему сделать это), и будет докачивать только те серии которых у вас ещё нет. Старые серии при этом не удаляются, а продолжают раздаваться!
    Eсли вы уже удалили старые серии, то предотвратить повторную закачку старых серий можно, отжав галочку в соответсвующих местах при запуске нового торрента. По возможности, желательно не удалять старые серии как можно дольше чтобы релизёр не столько продолжал раздавать старые серии, а смог сконцентрироваться на новых.


    Код:

    Общее
    Уникальный идентификатор                 : 246229440174047322353985982317623028790 (0xB93E10B1158D8B9FBB806743B9E0AC36)
    Полное имя                               : H:\Shameless (US) - Season 6 (AlexFilm) HDTV 720p\Shameless.US.s06e02.HDTVRip.720p.Rus.Eng.AlexFilm.mkv
    Формат                                   : Matroska
    Версия формата                           : Version 4 / Version 2
    Размер файла                             : 2,26 Гбайт
    Продолжительность                        : 54 м.
    Общий поток                              : 5889 Кбит/сек
    Название фильма                          : Shameless US 6x02 @ AlexFilm
    Дата кодирования                         : UTC 2016-01-20 20:34:54
    Программа кодирования                    : mkvmerge v7.1.0 ('Good Love') 64bit built on Jul 27 2014 13:06:55
    Библиотека кодирования                   : libebml v1.3.0 + libmatroska v1.4.1

    Видео
    Идентификатор                            : 1
    Формат                                   : AVC
    Формат/Информация                        : Advanced Video Codec
    Профиль формата                          : High@L4.1
    Параметр CABAC формата                   : Да
    Параметр ReFrames формата                : 9 кадров
    Идентификатор кодека                     : V_MPEG4/ISO/AVC
    Продолжительность                        : 54 м.
    Битрейт                                  : 4876 Кбит/сек
    Ширина                                   : 1280 пикселей
    Высота                                   : 720 пикселей
    Соотношение сторон                       : 16:9
    Режим частоты кадров                     : Постоянный
    Частота кадров                           : 23,976 кадра/сек
    Цветовое пространство                    : YUV
    Субдискретизация насыщенности            : 4:2:0
    Битовая глубина                          : 8 бит
    Тип развёртки                            : Прогрессивная
    Бит/(Пиксели*Кадры)                      : 0.221
    Размер потока                            : 1,87 Гбайт (83%)
    Библиотека кодирования                   : x264 core 148 r2638 7599210
    Настройки программы                      : cabac=1 / ref=9 / deblock=1:-3:-3 / analyse=0x3:0x133 / me=tesa / subme=11 / psy=1 / psy_rd=1.00:0.00 / mixed_ref=1 / me_range=32 / chroma_me=1 / trellis=2 / 8x8dct=1 / cqm=0 / deadzone=21,11 / fast_pskip=0 / chroma_qp_offset=-2 / threads=12 / lookahead_threads=2 / sliced_threads=0 / nr=0 / decimate=0 / interlaced=0 / bluray_compat=0 / constrained_intra=0 / bframes=8 / b_pyramid=2 / b_adapt=2 / b_bias=0 / direct=3 / weightb=1 / open_gop=0 / weightp=2 / keyint=250 / keyint_min=23 / scenecut=40 / intra_refresh=0 / rc_lookahead=60 / rc=crf / mbtree=0 / crf=16.5 / qcomp=0.65 / qpmin=0 / qpmax=69 / qpstep=4 / vbv_maxrate=62500 / vbv_bufsize=78125 / crf_max=0.0 / nal_hrd=none / filler=0 / ip_ratio=1.30 / pb_ratio=1.20 / aq=3:0.80
    Default                                  : Да
    Forced                                   : Нет

    Аудио #1
    Идентификатор                            : 2
    Формат                                   : AC-3
    Формат/Информация                        : Audio Coding 3
    Расширение режима                        : CM (complete main)
    Параметр Endianness формата              : Big
    Идентификатор кодека                     : A_AC3
    Продолжительность                        : 54 м.
    Вид битрейта                             : Постоянный
    Битрейт                                  : 448 Кбит/сек
    Каналы                                   : 6 каналов
    Расположение каналов                     : Front: L C R, Side: L R, LFE
    Частота                                  : 48,0 КГц
    Метод сжатия                             : С потерями
    Размер потока                            : 176 Мбайт (8%)
    Заголовок                                : DD5.1 AlexFilm
    Язык                                     : Russian
    Default                                  : Да
    Forced                                   : Нет

    Аудио #2
    Идентификатор                            : 3
    Формат                                   : AC-3
    Формат/Информация                        : Audio Coding 3
    Расширение режима                        : CM (complete main)
    Параметр Endianness формата              : Big
    Идентификатор кодека                     : A_AC3
    Продолжительность                        : 54 м.
    Вид битрейта                             : Постоянный
    Битрейт                                  : 448 Кбит/сек
    Каналы                                   : 6 каналов
    Расположение каналов                     : Front: L C R, Side: L R, LFE
    Частота                                  : 48,0 КГц
    Метод сжатия                             : С потерями
    Размер потока                            : 176 Мбайт (8%)
    Заголовок                                : DD5.1 Original
    Язык                                     : English
    Default                                  : Нет
    Forced                                   : Нет


    Внимание! В сериале присутствуют сцены с обнаженной натурой и ненормативная лексика!

    Скриншоты:
    скриншот   скриншот   скриншот   скриншот   скриншот   скриншот   скриншот  
    скриншот  

    Раздача ведётся путём добавления новых серий. Добавлена 12 серия (06.04.2016).Просьба перекачать торрент файл.

    piratbit.xyz



  • Скачать Бесстыжие через торрент http://pic1.kartinco.top/images/10/is9x3.jpg Скачать фильм Бесстыжие через торрент бесплантно в хорошем качестве Описание: Shameless, основанный на одноименном британском сериале, расскажет о семействе Галлагеров из Чикаго. Мать уже давно бросила ... 9.3 10 17
    Info! Золотая раздача, скачанное не засчитывается.
    Торрент: Зарегистрирован [2016-04-06 00:56] · скачан: 161 раз
    Статус: √ проверено
    Размер: 24.81 GB
    Как cкачать? Как скачать Бесстыжие через торрент | qTorrent

    % Раздел Тема Автор DL S | L
    Зарубежные сериалы [ 16.8 GB ] Бесстыдники / Бесстыжие / Shameless / Cезон 1 [2011 HDTV 720p] fallen_poet Скачать
    1 | 1
    Зарубежные сериалы [ 9.45 GB ] Бесстыжие / Бесстыдники / Shameless / Сезон: 10 / Серии: 1-12 из 12 [2019 WEB-DLRip] MVO [AlexFilm] bober100 Скачать
    3 | 2
    Зарубежные сериалы [ 28.24 GB ] Бесстыжие / Бесстыдники / Shameless / Сезон: 10 / Серии: 1-12 из 12 [2019 WEB-DL 720p] MVO [AlexFilm] bober100 Скачать
    3 | 0
    Зарубежные сериалы [ 50 GB ] Бесстыжие / Бесстыдники / Shameless / Сезон: 10 / Серия: 1-12 из 12 [2019 WEB-DL 1080p] MVO [AlexFilm] bober100 Скачать
    1 | 1
    Зарубежные сериалы [ 54.15 GB ] Бесстыжие / Бесстыдники / Shameless / Сезон: 9 / Серии: 1-14 из 14 [2018 WEB-DL 1080p] MVO [AlexFilm] bober100 Скачать
    3 | 0
    Зарубежные сериалы [ 25.49 GB ] Бесстыжие / Бесстыдники / Shameless / Сезон: 9 / Серии: 1-14 из 14 [2018 WEB-DL 720p] MVO [AlexFilm] bober100 Скачать
    1 | 0
    Зарубежные сериалы [ 9.3 GB ] Бесстыжие / Бесстыдники / Shameless / Сезон: 9 / Серии: 1-14 из 14 [2018 WEB-DLRip] MVO [AlexFilm] bober100 Скачать
    2 | 0


    Последний раз редактировалось: GEKADOL (2016-04-06 00:56), всего редактировалось 7 раз(а)

    28-11-2019 20:33  

    Отключить всю рекламу на сайте

    27-02-2016 02:07 Бесстыжие Скачать торрент  

    PuFFDaDDy писал(а):

    когда уже 7ая то? как то сдвинулся график выхода

    Да серии стали выходить по субботам а не по средам) По крайней мере пока так) piratbit.xyz



    17-03-2016 03:18 Бесстыжие Скачать торрент  

    Цитата:

    Внимание! В сериале присутствуют сцены с обнаженной натурой и ненормативная лексика!

    всяко лучше, чем рекламаpiratbit.xyz



    17-03-2016 03:56 Бесстыжие Скачать торрент  

    PuFFDaDDy писал(а):

    хорошо так на ночь глядя подошла 9ая, еще раз спасибо за раздачу

    А у меня 6-40 утра было))piratbit.xyz



    17-03-2016 03:57 Бесстыжие Скачать торрент  

    sergunka писал(а):

    Цитата:

    Внимание! В сериале присутствуют сцены с обнаженной натурой и ненормативная лексика!

    всяко лучше, чем реклама

    piratbit.xyz



    19-03-2016 02:56 Бесстыжие Скачать торрент  

    мой любимый сериал, моих соседей напоминаетpiratbit.xyz



    04-04-2016 05:11 Бесстыжие Скачать торрент  

    Linch писал(а):

    мой любимый сериал, моих соседей напоминает

    piratbit.xyz



      Дорогой пользователь! Огромная просьба, поблагодарите релизера, оцените раздачу и оставьте свои комментарий, если Вы скачали Бесстыжие через торрент бесплатно! Внесите свою лепту в развитие PiratBit!
      Комментировать посты могут только пользователи прошедшие не сложную регистрацию
      Показать сообщения:    

      Бесстыжие через торрент
      Скачать бесплатно Бесстыжие
      Бесстыжие скачать торрент
      Бесстыжие смотреть онлайн
      Cкачать фильм Бесстыжие бесплатно
      Бесстыжие скачать торрент в хорошем качестве
      Бесстыжие смотреть онлайн бесплатно в хорошем качестве


      Вы не можете начинать темы
      Вы не можете отвечать на сообщения
      Вы не можете редактировать свои сообщения
      Вы не можете удалять свои сообщения
      Вы не можете голосовать в опросах
      Вы не можете прикреплять файлы к сообщениям
      Вы можете скачивать файлы