Ссылка на приватное зеркало всего за 1$. Внимание количество ограничено!!!

iTunes

1+1

iTunes

мы

MV0

1

WEB-DLRip

Джокер

Пифагор

Ведьмак / The Witcher сериал

iTunes

ПШазам

iTunes

Оно 2

iTunes

30
pack

Вам бонус

ВАЖНО

!!Акция!!

Alien_RageХит недели

RePack

Resident Evil 21

ИГРА 18+

pack

RePack

jed

!!Акция!!

Alien_Rage

RePack

fifa19

RePack

Assassins Creed: Odyssey

RePack

NEED FOR SPEED™ PAYBACK

4 сезон

9 сезон

Бесстыжие 9 сезон

Все сериалы

все сериалы на PB.wtf

RePack

FAR CRY 5
  

Мистер Рок-н-Ролл: История Алана Фрида / Mr. Rock 'n' Roll: The Alan Freed Story (Энди Волк / Andy Wolk) [1999, драма, биография, DVDRemux] [Dub] (Netflix) + [MVO] (DVD R5) piratbit.xyz

Мистер Рок-н-Ролл: История Алана Фрида через торрент piratbit.xyz

Размер: 3.88 GB | Добавлен: 4 мес. 2 д. назад | Торрент скачан:1 раз
Скачать  

15-10-2019 18:07 Мистер Рок-н-Ролл: История Алана Фрида Скачать торрент  

Мистер Рок-н-Ролл: История Алана Фрида / Mr. Rock 'n' Roll: The Alan Freed Story

Страна: США
Жанр: драма, биография
Год выпуска: 1999
Продолжительность: 01:24:27
Перевод 1: Профессиональный (дублированный) Netflix (песни переведены субтитрами)
Перевод 2: Профессиональный (многоголосый закадровый) DVD R5
Субтитры: русские (Full, Forced), английские - Netflix
Режиссер: Энди Волк / Andy Wolk
В ролях: Джадд Нельсон, Мэдхен Амик, Дэвид Джианопулос, Дэниэл Кэш, Леон, Пола Абдул, Фабиан, Бобби , Джеймс С. Виктор, Уолтер Фрэнкс
Описание: В самом начале 1950-ых появилась новая, необычная музыка, обладающая мощным зарядом энергии, которая изменила жизнь не одного поколения. Назвали её «рок-н-ролл». Этот термин впервые употребил Алан Фрид, диск-жокей из Кливленда. Его имя вы найдете в любой энциклопедии рок-музыки. Фрид и рок-н-ролл стали синонимами, и одно время фирмы грамзаписи даже платили Алану за право использования термина «rock«n»roll»! Впрочем, всё это и многое другое Вы узнаете из фильма «Мистер Рок-н-ролл», ведь это его история — история Алана Фрида, рассказанная под зажигательные песни величайших представителей эры рок-н-ролла.
rating
Сэмпл
Качество видео: DVDRemux
Формат видео: MKV
Видео: MPEG2, 720x576 (4:3), 25,000 fps, 6000 Kbps
Аудио 1: AC3, 48,0 kHz, 2 ch, 192 kbps | Дубляж
Аудио 2: AC3, 48,0 kHz, 2 ch, 192 kbps | MVO
Аудио 3: AC3, 48,0 kHz, 2 ch, 192 kbps | English
Формат субтитров: softsub (SRT)
Общее
Полное имя : Mr.Rock.'n.Roll.The.Alan.Freed.Story.1999.DVDRemux.-Kyle.mkv
Формат : Matroska
Версия формата : Version 4
Размер файла : 3,88 Гбайт
Продолжительность : 1 ч. 24 м.
Режим общего битрейта : Переменный
Общий поток : 6582 Кбит/сек
Дата кодирования : UTC 2019-08-26 17:52:56
Программа кодирования : mkvmerge v37.0.0 ('Leave It') 64-bit
Библиотека кодирования : libebml v1.3.9 + libmatroska v1.5.2

Видео
Идентификатор : 1
Формат : MPEG Video
Версия формата : Version 2
Профиль формата : Main@Main
Настройки формата : CustomMatrix / BVOP
Параметр BVOP формата : Да
Параметр матрицы формата : Выборочная
Параметр GOP формата : M=3, N=15
Структура изображения : Frame
Идентификатор кодека : V_MPEG2
Идентификатор кодека/Информация : MPEG 1 or 2 Video
Продолжительность : 1 ч. 24 м.
Вид битрейта : Переменный
Битрейт : 6000 Кбит/сек
Максимальный битрейт : 8000 Кбит/сек
Ширина : 720 пикселей
Высота : 576 пикселей
Соотношение сторон : 4:3
Режим частоты кадров : Постоянный
Частота кадров : 25,000 кадров/сек
Стандарт вещания : PAL
Цветовое пространство : YUV
Субдискретизация насыщенности : 4:2:0
Битовая глубина : 8 бит
Тип развёртки : Чересстрочная
Порядок развёртки : Нижнее поле первое
Метод сжатия : С потерями
Бит/(Пиксели*Кадры) : 0.579
Временной код первого кадра : 00:00:00:00
Оригинал временного кода : Group of pictures header
GOP, открыто/закрыто : Открыто
GOP, открыто/закрыто на первом кадре : Закрыто
Размер потока : 3,54 Гбайт (91%)
Заголовок : English
Язык : English
Default : Да
Forced : Нет

Аудио #1
Идентификатор : 2
Формат : AC-3
Формат/Информация : Audio Coding 3
Коммерческое название : Dolby Digital
Идентификатор кодека : A_AC3
Продолжительность : 1 ч. 24 м.
Вид битрейта : Постоянный
Битрейт : 192 Кбит/сек
Каналы : 2 канала
ChannelLayout : L R
Частота : 48,0 КГц
Частота кадров : 31,250 кадров/сек (1536 SPF)
Битовая глубина : 16 бит
Метод сжатия : С потерями
Размер потока : 116 Мбайт (3%)
Заголовок : Netflix
Язык : Russian
ServiceKind/String : Complete Main
Default : Да
Forced : Нет

Аудио #2
Идентификатор : 3
Формат : AC-3
Формат/Информация : Audio Coding 3
Коммерческое название : Dolby Digital
Идентификатор кодека : A_AC3
Продолжительность : 1 ч. 24 м.
Вид битрейта : Постоянный
Битрейт : 192 Кбит/сек
Каналы : 2 канала
ChannelLayout : L R
Частота : 48,0 КГц
Частота кадров : 31,250 кадров/сек (1536 SPF)
Битовая глубина : 16 бит
Метод сжатия : С потерями
Размер потока : 116 Мбайт (3%)
Заголовок : MVO
Язык : Russian
ServiceKind/String : Complete Main
Default : Нет
Forced : Нет

Аудио #3
Идентификатор : 4
Формат : AC-3
Формат/Информация : Audio Coding 3
Коммерческое название : Dolby Digital
Идентификатор кодека : A_AC3
Продолжительность : 1 ч. 24 м.
Вид битрейта : Постоянный
Битрейт : 192 Кбит/сек
Каналы : 2 канала
ChannelLayout : L R
Частота : 48,0 КГц
Частота кадров : 31,250 кадров/сек (1536 SPF)
Битовая глубина : 16 бит
Метод сжатия : С потерями
Размер потока : 116 Мбайт (3%)
Заголовок : English
Язык : English
ServiceKind/String : Complete Main
Default : Нет
Forced : Нет

Текст #1
Идентификатор : 5
Формат : UTF-8
Идентификатор кодека : S_TEXT/UTF8
Идентификатор кодека/Информация : UTF-8 Plain Text
Продолжительность : 1 ч. 22 м.
Битрейт : 18 бит/сек
ElementCount : 205
Размер потока : 11,1 Кбайт (0%)
Заголовок : Forced
Язык : Russian
Default : Да
Forced : Нет

Текст #2
Идентификатор : 6
Формат : UTF-8
Идентификатор кодека : S_TEXT/UTF8
Идентификатор кодека/Информация : UTF-8 Plain Text
Продолжительность : 1 ч. 24 м.
Битрейт : 103 бит/сек
ElementCount : 1115
Размер потока : 63,7 Кбайт (0%)
Заголовок : Russian
Язык : Russian
Default : Нет
Forced : Нет

Текст #3
Идентификатор : 7
Формат : UTF-8
Идентификатор кодека : S_TEXT/UTF8
Идентификатор кодека/Информация : UTF-8 Plain Text
Продолжительность : 1 ч. 23 м.
Битрейт : 81 бит/сек
ElementCount : 1522
Размер потока : 49,5 Кбайт (0%)
Заголовок : English
Язык : English
Default : Нет
Forced : Нет
скриншот  скриншот  скриншот  
piratbit.xyz



Скачать Мистер Рок-н-Ролл: История Алана Фрида через торрент https://i86.fastpic.ru/big/2019/0826/77/1ff57e73c695cf1f603841afb5017b77.jpg Скачать фильм Мистер Рок-н-Ролл: История Алана Фрида через торрент бесплантно в хорошем качестве Описание: В самом начале 1950-ых появилась новая, необычная музыка, обладающая мощным зарядом энергии, которая изменила жизнь не одного ... 10 10 1
Торрент: Зарегистрирован [2019-10-15 18:07] · скачан: 1 раз
Статус: √ проверено
Размер: 3.88 GB
Как cкачать? Как скачать Мистер Рок-н-Ролл: История Алана Фрида через торрент | qTorrent

28-11-2019 20:33  

Отключить всю рекламу на сайте

    Дорогой пользователь! Огромная просьба, поблагодарите релизера, оцените раздачу и оставьте свои комментарий, если Вы скачали Мистер Рок-н-Ролл: История Алана Фрида через торрент бесплатно! Внесите свою лепту в развитие PiratBit!
    Комментировать посты могут только пользователи прошедшие не сложную регистрацию
    Показать сообщения:    

    Мистер Рок-н-Ролл: История Алана Фрида через торрент
    Скачать бесплатно Мистер Рок-н-Ролл: История Алана Фрида
    Мистер Рок-н-Ролл: История Алана Фрида скачать торрент
    Мистер Рок-н-Ролл: История Алана Фрида смотреть онлайн
    Cкачать фильм Мистер Рок-н-Ролл: История Алана Фрида бесплатно
    Мистер Рок-н-Ролл: История Алана Фрида скачать торрент в хорошем качестве
    Мистер Рок-н-Ролл: История Алана Фрида смотреть онлайн бесплатно в хорошем качестве


    Вы не можете начинать темы
    Вы не можете отвечать на сообщения
    Вы не можете редактировать свои сообщения
    Вы не можете удалять свои сообщения
    Вы не можете голосовать в опросах
    Вы не можете прикреплять файлы к сообщениям
    Вы можете скачивать файлы